Скачать через торрент музыку Рождественская "Песенка года" 2013 - Часть 01 бесплатно без регистрации torrent

Статистика раздачи
Размер:  3.3 GB   |    Зарегистрирован:  4 года 11 месяцев   |    .torrent скачан:  60 раз   |   
Раздают:  1  
   
загрузка...
 
Автор Сообщение

Galfimbul

avatar Galfimbul


Рождественская "Песенка года" 2013 - Часть 01 (Из 03)

Жанр: Pop
Продолжительность: 00:55:59
Год выпуска: 2014

Описание: Праздничный концерт с участием звезд эстрады, лауреатов и победителей "Детской Новой волны" и "Детского Евровидения" разных лет. Концерт по традиции благотворительный, на него приглашены дети из неблагополучных семей и детских домов. Самые популярные российские артисты с удовольствием исполнят свои хиты вместе с начинающими звездами.

Треклист:

Требуется помощь!

Доп. информация: Релиз -

Рип чистый. Без посторонних надписей. Выкладывается как есть.

Качество: HDTV 1080i
Контейнер: TS
Видео кодек: AVC
Аудио кодек: AC3
Видео: 1920x1080 (16:9) 25.000 fps 7 834 Kbps, 0.151 bit/pixel
Аудио: MP2 192 Kbps, 2 channels
GeneralID : 1 (0x1)Complete name : I:\ВЫКЛАДКА\Рождественская Песенка Года - 2013 (2014, Pop, HDTV 1080i) (MYDIMKA)\01 часть.tsFormat : MPEG-TSFile size : 3.30 GiBDuration : 55mn 58sOverall bit rate mode : VariableOverall bit rate : 8 445 Kbps

VideoID : 2911 (0xB5F)Menu ID : 1 (0x1)Format : AVCFormat/Info : Advanced Video CodecFormat profile : High@L4.0Format settings, CABAC : YesFormat settings, ReFrames : 4 framesCodec ID : 27Duration : 55mn 58sBit rate : 7 834 KbpsWidth : 1 920 pixelsHeight : 1 080 pixelsDisplay aspect ratio : 16:9Frame rate : 25.000 fpsColor space : YUVChroma subsampling : 4:2:0Bit depth : 8 bitsScan type : MBAFFBits/(Pixel*Frame) : 0.151Stream size : 3.06 GiB (93%)

AudioID : 2912 (0xB60)Menu ID : 1 (0x1)Format : MPEG AudioFormat version : Version 1Format profile : Layer 2Codec ID : 3Duration : 55mn 58sBit rate mode : ConstantBit rate : 192 KbpsChannel count : 2 channelsSampling rate : 48.0 KHzCompression mode : LossyStream size : 76.9 MiB (2%)Language : Russian


Трекер:  [ 05-Янв-2014 15:22 ]

  

Скачать .torrent

Размер .torrent файла 17 KB


Размер: 3.3 GB
Хэш (hash) релиза: f685fa5185c54a011dcdc2b185aa4c62255fff6d

Еще никто не оставлял запись к записи скачать торрент Рождественская "Песенка года" 2013 - Часть 01 . Будь первым!

!Обратная связь