Скачать через торрент музыку Ellie Goulding - Burn бесплатно без регистрации torrent

Статистика раздачи
Размер:  396 MB   |    Зарегистрирован:  4 года 11 месяцев   |    .torrent скачан:  110 раз   |   
Раздают:  1  
   
загрузка...
 
Автор Сообщение

Galfimbul

avatar Galfimbul


Ellie Goulding - Burn (TOTP New Year 2013)



Жанр: Synthpop
Продолжительность: 03:57
Год выпуска: 2013

Качество: HDTV 1080i
Контейнер: TS
Видео кодек: H.264
Аудио кодек: MP2
Видео: AVC (H.264), 1920x1080i, 25.00 fps, 12.8 Mbps
Аудио: MA-2, 48.0 KHz, 256 Kbps (2 Ch.)
Аудио 2: MA-2, 48.0 KHz, 256 Kbps (2 Ch.)



GeneralID : 1 (0x1)Complete name : C:\Users\admin\Desktop\Ellie Goulding mvp TOTP New Year Burn 31 12 13 1080i.tsFormat : MPEG-TSFile size : 396 MiBDuration : 3mn 57sOverall bit rate mode : VariableOverall bit rate : 14.0 Mbps

VideoID : 5400 (0x1518)Menu ID : 1 (0x1)Format : AVCFormat/Info : Advanced Video CodecFormat profile : High@L4.1Format settings, CABAC : YesFormat settings, ReFrames : 3 framesCodec ID : 27Duration : 3mn 57sBit rate mode : VariableBit rate : 12.8 MbpsMaximum bit rate : 18.0 MbpsWidth : 1 920 pixelsHeight : 1 080 pixelsDisplay aspect ratio : 16:9Frame rate : 25.000 fpsStandard : PALColor space : YUVChroma subsampling : 4:2:0Bit depth : 8 bitsScan type : InterlacedScan order : Top Field FirstBits/(Pixel*Frame) : 0.247Stream size : 362 MiB (91%)Color primaries : BT.709Transfer characteristics : BT.709Matrix coefficients : BT.709

Audio #1ID : 5401 (0x1519)Menu ID : 1 (0x1)Format : MPEG AudioFormat version : Version 1Format profile : Layer 2Codec ID : 3Duration : 3mn 57sBit rate mode : ConstantBit rate : 256 KbpsChannel(s) : 2 channelsSampling rate : 48.0 KHzCompression mode : LossyStream size : 7.24 MiB (2%)Language : English

Audio #2ID : 5402 (0x151A)Menu ID : 1 (0x1)Format : MPEG AudioFormat version : Version 1Format profile : Layer 2Codec ID : 3Duration : 3mn 57sBit rate mode : ConstantBit rate : 256 KbpsChannel(s) : 2 channelsSampling rate : 48.0 KHzCompression mode : LossyStream size : 7.24 MiB (2%)Language : nar

Text #1ID : 5403 (0x151B)-888Menu ID : 1 (0x1)Format : TeletextLanguage : English

Text #2ID : 5404 (0x151C)Menu ID : 1 (0x1)Format : DVB SubtitleCodec ID : 6Duration : 3mn 55sDelay relative to video : 1s 745msLanguage : English

MenuID : 260 (0x104)Menu ID : 1 (0x1)Duration : 3mn 57sList : 5400 (0x1518) (AVC) / 5401 (0x1519) (MPEG Audio, English) / 5402 (0x151A) (MPEG Audio, nar) / 5403 (0x151B) () / 5404 (0x151C) (DVB Subtitle, English)Language : / English / nar / / English


Трекер:  [ 01-Янв-2014 23:46 ]

  

Скачать .torrent

Размер .torrent файла 16 KB


Размер: 396 MB
Хэш (hash) релиза: 7a33f094aae042a357a603fe980f56353916c189

Торренты, похожие на Ellie Goulding - Burn скачать торрент

Форум Название Автор Размер S L Добавлен
Поп-музыка, Eurodance, Disco (video) ·· Ellie Goulding - Burn [2013 г., POP,TVrip] Galfimbul 8311398479 MB 0 0 1387966021

13:07

25-Дек-13

Электронная музыка (mp3) ·· (Synthpop, House) Ellie Goulding - Burn - 2013, MP3, 320 kbps ***Джокер*** 4830932546 MB 0 0 1381869028

23:30

15-Окт-13

Еще никто не оставлял запись к записи скачать торрент Ellie Goulding - Burn . Будь первым!

!Обратная связь