Скачать через торрент музыку Katy Perry - Teenage Dream бесплатно без регистрации torrent

Статистика раздачи
Размер:  120 MB   |    Зарегистрирован:  4 года 11 месяцев   |    .torrent скачан:  114 раз   |   
Раздают:  1  
   
загрузка...
 
Автор Сообщение

Galfimbul

avatar Galfimbul


Katy Perry - Teenage Dream (Palladia)

Жанр: Power pop, electropop
Продолжительность: 03:49
Год выпуска: 2010

Качество: HDTVRip 720p
Контейнер: MKV

Видео: AVC 1280x720 16:9 4000 Kbps 25.000 fps
Аудио: AC3 384 Kbps 6 channels 48.0 KHz
GeneralUnique ID : 225372723477777141402673133026282433708 (0xA98D352A7A13D145AD2101E8F04DECAC)Complete name : D:\Katy Perry - Teenage Dream.mkvFormat : MatroskaFile size : 120 MiBDuration : 3mn 49sOverall bit rate : 4 393 KbpsEncoded date : UTC 2011-07-19 14:16:17Writing application : mkvmerge v4.8.0 (''I Got The...'') 编译于 May 24 2011 03:12:58Writing library : libebml v1.2.0 + libmatroska v1.1.0

VideoID : 1Format : AVCFormat/Info : Advanced Video CodecFormat profile : High@L4.1Format settings, CABAC : YesFormat settings, ReFrames : 3 framesFrame mode : Frame doublingFormat settings, GOP : M=1, N=24Muxing mode : Header strippingCodec ID : V_MPEG4/ISO/AVCDuration : 3mn 49sBit rate mode : VariableBit rate : 4 000 KbpsMaximum bit rate : 14.0 MbpsWidth : 1 280 pixelsHeight : 720 pixelsDisplay aspect ratio : 16:9Frame rate : 25.000 fpsColor space : YUVChroma subsampling : 4:2:0Bit depth : 8 bitsScan type : ProgressiveBits/(Pixel*Frame) : 0.174Stream size : 107 MiB (89%)Writing library : x264 core 115 r1995 c1e60b9Encoding settings : cabac=1 / ref=3 / deblock=1:0:0 / analyse=0x3:0x113 / me=hex / subme=7 / psy=1 / psy_rd=1.00:0.00 / mixed_ref=1 / me_range=16 / chroma_me=1 / trellis=1 / 8x8dct=1 / cqm=0 / deadzone=21,11 / fast_pskip=0 / chroma_qp_offset=-2 / threads=3 / sliced_threads=0 / slices=4 / nr=0 / decimate=0 / interlaced=0 / bluray_compat=1 / constrained_intra=0 / bframes=3 / b_pyramid=1 / b_adapt=2 / b_bias=0 / direct=1 / weightb=1 / open_gop=1 / weightp=1 / keyint=25 / keyint_min=2 / scenecut=40 / intra_refresh=0 / rc_lookahead=25 / rc=2pass / mbtree=1 / bitrate=4000 / ratetol=1.0 / qcomp=0.60 / qpmin=0 / qpmax=69 / qpstep=4 / cplxblur=20.0 / qblur=0.5 / vbv_maxrate=14000 / vbv_bufsize=14000 / nal_hrd=vbr / ip_ratio=1.40 / aq=1:1.00Language : EnglishColor primaries : BT.709-5, BT.1361, IEC 61966-2-4, SMPTE RP177Transfer characteristics : BT.709-5, BT.1361Matrix coefficients : BT.709-5, BT.1361, IEC 61966-2-4 709, SMPTE RP177

AudioID : 2Format : AC-3Format/Info : Audio Coding 3Mode extension : CM (complete main)Muxing mode : Header strippingCodec ID : A_AC3Duration : 3mn 49sBit rate mode : ConstantBit rate : 384 KbpsChannel(s) : 6 channelsChannel positions : Front: L C R, Side: L R, LFESampling rate : 48.0 KHzBit depth : 16 bitsCompression mode : LossyStream size : 10.5 MiB (9%)


Трекер:  [ 01-Янв-2014 22:34 ]

  

Скачать .torrent

Размер .torrent файла 19 KB


Размер: 120 MB
Хэш (hash) релиза: 8cc0abe92a84ddf48e29f141044476166fafd6bd

Еще никто не оставлял запись к записи скачать торрент Katy Perry - Teenage Dream . Будь первым!

!Обратная связь