Скачать через торрент музыку Амбар и Шайба - Лучше Не Надо - 2010, APE бесплатно без регистрации torrent

Статистика раздачи
Размер:  282 MB   |    Зарегистрирован:  7 лет 10 месяцев   |    .torrent скачан:  62 раза   |   
Раздают:  1  
   
загрузка...
 
Автор Сообщение

AqvaGen


Амбар и Шайба - Лучше Не Надо




Жанр:
Hip-Hop
Страна-производитель диска:
Россия
Год издания диска:
2010
Издатель (лейбл):
UEP-CD
Номер по каталогу:
UL 106381
Страна:
Россия (г. Чебоксары)
Аудио кодек:
APE (*.ape)
Тип рипа:
image+.cue
Битрейт аудио:
lossless
Продолжительность:
47:08
Наличие сканов в содержимом раздачи:
да
Треклист:
01 RappaFeelin
02 Рэп Нам Не Приносит Денег
03 Верните Друзей
04 HomeRec
05 Я Ем Людей
(Ft. Rexbys)
06 Музыка Одна
07 Жуй Этот Фанк
08 Cassette r.i.p.
09 Непременно
(Ft. Гулливер (ЛМ))
10 Я Сошёл С Ума (Ft. Весс (ЛМ))
11 Чекирап
12 Пока Не Кончатся Стены
13 Заключение
14 Bonus - Я Ем Людей (Crime Version)
 
Exact Audio Copy V0.99 prebeta 4 from 23. January 2008

Отчёт EAC об извлечении, выполненном 29. января 2011, 19:09

Амбар и Шайба / Лучше Не Надо

Дисковод: Optiarc DVD RW AD-7700S Adapter: 0 ID: 1

Режим чтения : ДостоверностьИспользование точного потока : ДаОтключение кэша аудио : ДаИспользование указателей C2 : Нет

Коррекция смещения при чтении : 48Способность читать области Lead-in и Lead-out : НетЗаполнение пропущенных сэмплов тишиной : ДаУдаление блоков с тишиной в начале и конце : НетПри вычислениях CRC использовались нулевые сэмплы : ДаИнтерфейс : Установленный внешний ASPI-интерфейс

Выходной формат : Внутренние WAV-операцииФормат сэмплов : 44.100 Гц; 16 бит; стерео

TOC извлечённого CD

Трек | Старт | Длительность | Начальный сектор | Конечный сектор --------------------------------------------------------------------- 1 | 0:00.00 | 2:24.29 | 0 | 10828 2 | 2:24.29 | 3:33.58 | 10829 | 26861 3 | 5:58.12 | 3:15.60 | 26862 | 41546 4 | 9:13.72 | 3:41.67 | 41547 | 58188 5 | 12:55.64 | 4:44.47 | 58189 | 79535 6 | 17:40.36 | 4:30.47 | 79536 | 99832 7 | 22:11.08 | 2:20.10 | 99833 | 110342 8 | 24:31.18 | 2:26.33 | 110343 | 121325 9 | 26:57.51 | 3:14.07 | 121326 | 135882 10 | 30:11.58 | 3:48.02 | 135883 | 152984 11 | 33:59.60 | 4:23.05 | 152985 | 172714 12 | 38:22.65 | 2:20.65 | 172715 | 183279 13 | 40:43.55 | 4:05.69 | 183280 | 201723 14 | 44:49.49 | 2:18.37 | 201724 | 212110

Характеристики диапазона извлечения и сообщения об ошибках

Выбранный диапазон

Имя файла C:\Users\Rulezzz1\Music\РИПЫ\Амбар и Шайба - Лучше Не Надо (2010).wav

Пиковый уровень 98.0 % Качество диапазона 100.0 % CRC теста 964D6B0E CRC копии 964D6B0E Копирование... OK

Ошибок не произошло

Конец отчёта
 
REM GENRE Hip-HopREM DATE 2010REM DISCID AB0B0C0EREM COMMENT "ExactAudioCopy v0.99pb4"PERFORMER "Амбар и Шайба"TITLE "Лучше Не Надо"FILE "Амбар и Шайба - Лучше Не Надо (2010).ape" WAVE TRACK 01 AUDIO TITLE "RappaFeelin" PERFORMER "Амбар и Шайба" FLAGS DCP INDEX 01 00:00:00 TRACK 02 AUDIO TITLE "Рэп Нам Не Приносит Денег" PERFORMER "Амбар и Шайба" FLAGS DCP INDEX 01 02:24:29 TRACK 03 AUDIO TITLE "Верните Друзей" PERFORMER "Амбар и Шайба" FLAGS DCP INDEX 01 05:58:12 TRACK 04 AUDIO TITLE "HomeRec" PERFORMER "Амбар и Шайба" FLAGS DCP INDEX 01 09:13:72 TRACK 05 AUDIO TITLE "Я Ем Людей (Ft. Rexbys)" PERFORMER "Амбар и Шайба" FLAGS DCP INDEX 01 12:55:64 INDEX 02 12:56:02 INDEX 03 14:28:58 INDEX 04 14:31:53 INDEX 05 14:55:63 INDEX 06 15:04:47 INDEX 07 16:06:07 INDEX 08 16:28:03 INDEX 09 17:25:09 TRACK 06 AUDIO TITLE "Музыка Одна" PERFORMER "Амбар и Шайба" FLAGS DCP INDEX 01 17:40:36 TRACK 07 AUDIO TITLE "Жуй Этот Фанк" PERFORMER "Амбар и Шайба" FLAGS DCP INDEX 01 22:11:08 TRACK 08 AUDIO TITLE "Cassette r.i.p." PERFORMER "Амбар и Шайба" FLAGS DCP INDEX 01 24:31:18 TRACK 09 AUDIO TITLE "Непременно (Ft. Гулливер (ЛМ))" PERFORMER "Амбар и Шайба" FLAGS DCP INDEX 01 26:57:51 INDEX 02 28:20:68 TRACK 10 AUDIO TITLE "Я Сошёл С Ума (Ft. Весс (ЛМ))" PERFORMER "Амбар и Шайба" FLAGS DCP INDEX 01 30:11:58 TRACK 11 AUDIO TITLE "Чекирап" PERFORMER "Амбар и Шайба" FLAGS DCP INDEX 01 33:59:60 TRACK 12 AUDIO TITLE "Пока Не Кончатся Стены" PERFORMER "Амбар и Шайба" FLAGS DCP INDEX 01 38:22:65 TRACK 13 AUDIO TITLE "Заключение" PERFORMER "Амбар и Шайба" FLAGS DCP INDEX 01 40:43:55 TRACK 14 AUDIO TITLE "Bonus - Я Ем Людей (Crime Version)" PERFORMER "Амбар и Шайба" FLAGS DCP INDEX 01 44:49:49
 
Started at: суббота, 29. 01. 2011. - 19:26.121 file found

1 -===- C:\Users\Rulezzz1\Music\РИПЫ\Амбар и Шайба - Лучше Не Надо (2010).ape Extracted successfully Conclusion: this track is CDDA with probability 100% Tempfile successfully deleted.

Finished at: суббота, 29. 01. 2011. - 19:30.46 (operation time: 0:04.34)
Официальный сайт

Группа в контакте

Трекер:  [ 29-Янв-2011 21:15 ]

  

Скачать .torrent

Размер .torrent файла 12 KB


Размер: 282 MB
Хэш (hash) релиза: 1b4ed759292da3c87b9a9ea43df18b31f52f43f5

Еще никто не оставлял запись к записи скачать торрент Амбар и Шайба - Лучше Не Надо - 2010, APE . Будь первым!

!Обратная связь