Скачать через торрент музыку T-ara Japan Tour 2013 Treasure Box Live in Budokan бесплатно без регистрации torrent

Статистика раздачи
Размер:  7.49 GB   |    Зарегистрирован:  4 года 11 месяцев   |    .torrent скачан:  164 раза   |   
Раздают:  1  
   
загрузка...
 
Автор Сообщение

Galfimbul

avatar Galfimbul


TARA - Japan Tour 2013 - Treasure
Жанр: kpop, jpop
Продолжительность: 01:49:36 + 00:09:16
Год выпуска: 2013

Описание: Второй лайв концерт в Будокане.
01. ~OPENING VTR~
02. TARGET
03. Apple is A (Japanese ver.)
04. yayaya (Japanese ver.)
05. ~MC~
06. DAY BY DAY (Japanese ver.)
07. Ai no Uta (愛の詩; Love Poem) (So Yeon solo)
08. Shabondama no Yukue (シャボン玉のゆくえ; Bubble''s Whereabouts) (Boram, Qri Unit)
09. Dangerous Love (Ji Yeon, Eun Jung, Hyo Min Unit)
10. Kaze no You ni (風のように; Like The Wind) (QBS)
11. Bunny Style! (バニスタ!)
12. Wae Ireoni (ウェイロニ)
13. Sexy Love (Japanese ver.)
14. ~MC~
15. Daijobu (大丈夫; I''m Okay)
16. Hajimete no You ni (Japanese ver.) (初めてのように; Like The First Time)
17. Cry Cry (Japanese ver.)
18. Love Suggestion (Hyo Min solo)
19. My Sea (Ji Yeon solo)
20. Two As One (Eun Jung solo)
21. ~MC~
22. Beautiful Sniper
23. LOVE ME! ~Anata no Sei de Kurui Sou (Japanese ver.) (あなたのせいで狂いそう; Because You''re So Crazy)
24. T.T.L (Remix Dance Ver.)
25. Lovey-Dovey (Japanese ver.)
26. Encore
1. ~VTR~
2. Bo Peep Bo Peep (Japanese ver.)
3. ~MC~
4. Roly-Poly
5. Bye Bye (Japanese ver.)
6. End ~MC~
+ Бонус видео.
Качество: BDRip 1080p
Контейнер: MP4
Видео кодек: H.264
Аудио кодек: AAC
Видео концерта: MPEG4 Video (H264) 1920x1080 29.97fps 9122kbps. Аудио: AAC 48000Hz stereo 319kbps
Бонус видео: MPEG4 Video (H264) 1920x1080 29.97fps 3783kbps. Аудио: AAC 48000Hz stereo 254kbps
General
Complete name : E:\T-ARA Japan 2013 Tour Treasure Box\T-ARA Japan Tour 2013 - Treasure Box - Live in Budokan.mp4
Format : MPEG-4
Format profile : Base Media / Version 2
Codec ID : mp42
File size : 7.23 GiB
Duration : 1h 49mn
Overall bit rate mode : Variable
Overall bit rate : 9 448 Kbps
Encoded date : UTC 2013-12-24 08:23:46
Tagged date : UTC 2013-12-24 12:36:33
Writing application : HandBrake 0.9.9 2013052900

Video
ID : 1
Format : AVC
Format/Info : Advanced Video Codec
Format profile : High@L4.0
Format settings, CABAC : Yes
Format settings, ReFrames : 4 frames
Codec ID : avc1
Codec ID/Info : Advanced Video Coding
Duration : 1h 49mn
Bit rate mode : Variable
Bit rate : 9 122 Kbps
Width : 1 920 pixels
Height : 1 080 pixels
Display aspect ratio : 16:9
Frame rate mode : Constant
Frame rate : 29.970 fps
Color space : YUV
Chroma subsampling : 4:2:0
Bit depth : 8 bits
Scan type : Progressive
Bits/(Pixel*Frame) : 0.147
Stream size : 6.98 GiB (97%)
Writing library : x264 core 130 r2273 b3065e6
Encoding settings : cabac=1 / ref=4 / deblock=1:0:0 / analyse=0x3:0x113 / me=umh / subme=8 / psy=1 / psy_rd=1.00:0.00 / mixed_ref=1 / me_range=16 / chroma_me=1 / trellis=1 / 8x8dct=1 / cqm=0 / deadzone=21,11 / fast_pskip=1 / chroma_qp_offset=-2 / threads=6 / lookahead_threads=1 / sliced_threads=0 / nr=0 / decimate=1 / interlaced=0 / bluray_compat=0 / constrained_intra=0 / bframes=3 / b_pyramid=2 / b_adapt=2 / b_bias=0 / direct=3 / weightb=1 / open_gop=0 / weightp=2 / keyint=300 / keyint_min=30 / scenecut=40 / intra_refresh=0 / rc_lookahead=50 / rc=crf / mbtree=1 / crf=24.5 / qcomp=0.60 / qpmin=0 / qpmax=69 / qpstep=4 / vbv_maxrate=25000 / vbv_bufsize=31250 / crf_max=0.0 / nal_hrd=none / ip_ratio=1.40 / aq=1:1.00
Encoded date : UTC 2013-12-24 08:23:46
Tagged date : UTC 2013-12-24 12:36:32
Color primaries : BT.709
Transfer characteristics : BT.709
Matrix coefficients : BT.709

Audio
ID : 2
Format : AAC
Format/Info : Advanced Audio Codec
Format profile : LC
Codec ID : 40
Duration : 1h 49mn
Bit rate mode : Variable
Bit rate : 320 Kbps
Maximum bit rate : 409 Kbps
Channel count : 2 channels
Channel positions : Front: L R
Sampling rate : 48.0 KHz
Compression mode : Lossy
Delay relative to video : 67ms
Stream size : 251 MiB (3%)
Encoded date : UTC 2013-12-24 08:23:46
Tagged date : UTC 2013-12-24 12:36:30[/pre]


Трекер:  [ 25-Дек-2013 13:08 ]

  

Скачать .torrent

Размер .torrent файла 19 KB


Размер: 7.49 GB
Хэш (hash) релиза: dbca19bbc7a787a992a4a28eb2aac91291c655b6

Торренты, похожие на T-ara Japan Tour 2013 Treasure Box Live in Budokan скачать торрент

Форум Название Автор Размер S L Добавлен
Поп-музыка, Eurodance, Disco (video) ·· T-ara - Japan Tour 2013 Treasure Box Live in Budokan [2013, kpop, jpop, BDRip 1080p] Galfimbul 102162370009.51 GB 0 0 1388151530

16:38

27-Дек-13

Поп-музыка, Eurodance, Disco (video) ·· T-ARA Japan Tour 2013 - Treasure Box - Live in Budokan [2013.12.11, KPop, JPop, Blu-ray] Galfimbul 4184237004438.97 GB 0 0 1387624538

14:15

21-Дек-13

Еще никто не оставлял запись к записи скачать торрент T-ara Japan Tour 2013 Treasure Box Live in Budokan . Будь первым!

!Обратная связь