Скачать через торрент музыку Katy Perry - Unconditionally бесплатно без регистрации torrent

Статистика раздачи
Размер:  424 MB   |    Зарегистрирован:  4 года 11 месяцев   |    .torrent скачан:  104 раза   |   
Раздают:  1  
   
загрузка...
 
Автор Сообщение

Galfimbul

avatar Galfimbul


Katy Perry - Unconditionally (Live The Alan Carr Chatty Man)

Жанр: Pop
Продолжительность: 00:04:13
Год выпуска: 2013
Качество: HDTV 1080i
Контейнер: TS
Видео кодек: AVC
Аудио кодек: MPEG
Видео: AVC Video 1920x1080i 25.000fps 12.8Mbps
Аудио 1: MPEG 48.0KHz 2ch 256kbps
Аудио 2: MPEG 48.0KHz 2ch 256kbps
Формат : MPEG-TSРазмер файла : 424 МбайтПродолжительность : 4 м. 13 с.Режим общего битрейта : ПеременныйОбщий поток : 14,1 Мбит/сек

ВидеоИдентификатор : 2305 (0x901)Идентификатор меню : 1 (0x1)Формат : AVCФормат/Информация : Advanced Video CodecПрофиль формата : High@L4.1Параметр CABAC формата : ДаПараметр ReFrames формата : 3 кадраПараметр GOP формата : M=3, N=33Идентификатор кодека : 27Продолжительность : 4 м. 13 с.Вид битрейта : ПеременныйБитрейт : 12,8 Мбит/секМаксимальный битрейт : 18,0 Мбит/секШирина : 1920 пикселейВысота : 1080 пикселейСоотношение сторон : 16:9Частота кадров : 25,000 кадров/секСтандарт вещания : PALЦветовое пространство : YUVСубдискретизация насыщенности : 4:2:0Битовая глубина : 8 битТип развёртки : ЧересстрочнаяПорядок развёртки : Верхнее поле первоеБит/(Пиксели*Кадры) : 0.248Размер потока : 388 Мбайт (91%)Основные цвета : BT.709Характеристики трансфера : BT.709Коэффициенты матрицы : BT.709

Аудио #1Идентификатор : 2306 (0x902)Идентификатор меню : 1 (0x1)Формат : MPEG AudioВерсия формата : Version 1Профиль формата : Layer 2Идентификатор кодека : 3Продолжительность : 4 м. 13 с.Вид битрейта : ПостоянныйБитрейт : 256 Кбит/секКаналы : 2 каналаЧастота : 48,0 КГцМетод сжатия : С потерямиРазмер потока : 7,73 Мбайт (2%)Язык : English

Аудио #2Идентификатор : 2307 (0x903)Идентификатор меню : 1 (0x1)Формат : MPEG AudioВерсия формата : Version 1Профиль формата : Layer 2Идентификатор кодека : 3Продолжительность : 4 м. 13 с.Вид битрейта : ПостоянныйБитрейт : 256 Кбит/секКаналы : 2 каналаЧастота : 48,0 КГцМетод сжатия : С потерямиРазмер потока : 7,73 Мбайт (2%)Язык : nar

Текст #1Идентификатор : 2308 (0x904)Идентификатор меню : 1 (0x1)Формат : DVB SubtitleИдентификатор кодека : 6Продолжительность : 4 м. 8 с.Задержка видео : 47 мс.Язык : English

Текст #2Идентификатор : 2309 (0x905)-888Идентификатор меню : 1 (0x1)Формат : Teletext SubtitleЯзык : English

МенюИдентификатор : 259 (0x103)Идентификатор меню : 1 (0x1)Продолжительность : 4 м. 13 с.Список : 2305 (0x901) (AVC) / 2306 (0x902) (MPEG Audio, English) / 2307 (0x903) (MPEG Audio, nar) / 2308 (0x904) (DVB Subtitle, English) / 2309 (0x905) ()Язык : / English / nar / English


Трекер:  [ 22-Дек-2013 14:30 ]

  

Скачать .torrent

Размер .torrent файла 17 KB


Размер: 424 MB
Хэш (hash) релиза: cc2b85d4ca2686db5995465b68d1adcf60660779

Еще никто не оставлял запись к записи скачать торрент Katy Perry - Unconditionally . Будь первым!

!Обратная связь