Скачать через торрент музыку Зануда бесплатно без регистрации torrent

Статистика раздачи
Размер:  392 MB   |    Зарегистрирован:  7 лет 11 месяцев   |    .torrent скачан:  109 раз   |   
Раздают:  1  
   
загрузка...
 
Автор Сообщение

AqvaGen


Зануда / Папиросы
Жанр: Rap, Hip-Hop
Страна-производитель диска: Россия
Год издания диска: 2010
Город: Москва
Аудио кодек: FLAC (*.flac)
Тип рипа: tracks+.cue
Битрейт аудио: lossless
Продолжительность: 01:00:03
Наличие сканов в содержимом раздачи: да
Треклист:
01. Интро (0:01:51)
02. Изъяны (Feat. Легенды Про) (0:03:31)
03. Ел-Пил (0:03:22)
04. Фрист От RusKey (0:00:30)
05. Забудь (Feat. Тати) (0:02:53)
06. Папиросы (0:03:20)
07. Фон (Feat. D.Masta, Легенды Про (Гад Дым), Смоки Мо) (0:04:28)
08. Монпасье (Feat. Легенды Про (Быба)) (0:03:56)
09. Скит От "Легенды Про..." (0:02:01)
10. Все Пиздато (Feat. Легенды Про (Пёс)) (0:03:43)
11. Отходос (0:02:48)
12. Мандарины (Feat. Легенды Про (Пёс), Тато) (0:03:26)
13. Не Могу (Feat. Легенды Про (Пёс)) (0:03:28)
14. На Измене (Feat. RusKey, Легенды Про, А. Бандос) (0:04:31)
15. Так Бывает (Скит От Лизы) (0:02:45)
16. Нахуй (Feat. Легенды Про (Пёс), Манька) (0:04:12)
17. Аутро (0:01:35)
18. Тишина (0:01:11)
19. Скит От Купэ (0:00:42)
20. Промежутки (Feat. Intigam Milk) (0:01:59)
21. Все Пиздато (Feat. Легенды Про (Пёс)) (Remix) (0:03:41)
Exact Audio Copy V0.99 prebeta 4 from 23. January 2008
Отчёт EAC об извлечении, выполненном 8. сентября 2010, 17:01
Зануда / Папиросы
Дисковод: HL-DT-STDVD-RW_GSA-H41N Adapter: 0 ID: 1
Режим чтения : Достоверность
Использование точного потока : Да
Отключение кэша аудио : Да
Использование указателей C2 : Нет
Коррекция смещения при чтении : 667
Способность читать области Lead-in и Lead-out : Нет
Заполнение пропущенных сэмплов тишиной : Да
Удаление блоков с тишиной в начале и конце : Нет
При вычислениях CRC использовались нулевые сэмплы : Да
Интерфейс : Встроенный Win32-интерфейс для Win NT/2000
Обработка зазоров : Добавлено к предыдущему треку
Выходной формат : Пользовательский кодировщик
Выбранный битрейт : 1024 kBit/s
Качество : Высокий
Добавление ID3-тэга : Нет
Утилита сжатия : C:\Program Files\foobar2000\configs\codecs\flac.exe
Дополнительные параметры : -8 -V -T "ARTIST=%a" -T "TITLE=%t" -T "ALBUM=%g" -T "DATE=%y" -T "TRACKNUMBER=%n" -T "GENRE=%m" -T "COMMENT=EAC FLAC -8" %s
TOC извлечённого CD
Трек | Старт | Длительность | Начальный сектор | Конечный сектор
---------------------------------------------------------------------
1 | 0:00.00 | 1:51.56 | 0 | 8380
2 | 1:51.56 | 3:31.74 | 8381 | 24279
3 | 5:23.55 | 3:22.00 | 24280 | 39429
4 | 8:45.55 | 0:30.14 | 39430 | 41693
5 | 9:15.69 | 2:53.44 | 41694 | 54712
6 | 12:09.38 | 3:20.64 | 54713 | 69776
7 | 15:30.27 | 4:28.63 | 69777 | 89939
8 | 19:59.15 | 3:56.10 | 89940 | 107649
9 | 23:55.25 | 2:01.36 | 107650 | 116760
10 | 25:56.61 | 3:43.25 | 116761 | 133510
11 | 29:40.11 | 2:48.18 | 133511 | 146128
12 | 32:28.29 | 3:26.10 | 146129 | 161588
13 | 35:54.39 | 3:28.20 | 161589 | 177208
14 | 39:22.59 | 4:31.33 | 177209 | 197566
15 | 43:54.17 | 2:45.68 | 197567 | 210009
16 | 46:40.10 | 4:12.33 | 210010 | 228942
17 | 50:52.43 | 1:35.74 | 228943 | 236141
18 | 52:28.42 | 1:11.50 | 236142 | 241516
19 | 53:40.17 | 0:42.34 | 241517 | 244700
20 | 54:22.51 | 1:59.25 | 244701 | 253650
21 | 56:22.01 | 3:41.25 | 253651 | 270250
Трек 1
Имя файла G:\Музыка\Lossless\Зануда\Зануда - Папиросы (2010)\01_Интро.wav
Длина предзазора 0:00:02.00
Пиковый уровень 100.0 %
Качество трека 100.0 %
CRC теста 2CC0682A
CRC копии 2CC0682A
Трек не обнаружен в базе AccurateRip
Копирование... OK
Трек 2
Имя файла G:\Музыка\Lossless\Зануда\Зануда - Папиросы (2010)\02_Изъяны (Feat. Легенды Про).wav
Пиковый уровень 100.0 %
Качество трека 100.0 %
CRC теста 8A2C5144
CRC копии 8A2C5144
Трек не обнаружен в базе AccurateRip
Копирование... OK
Трек 3
Имя файла G:\Музыка\Lossless\Зануда\Зануда - Папиросы (2010)\03_Ел-Пил.wav
Пиковый уровень 100.0 %
Качество трека 100.0 %
CRC теста 5EC2191F
CRC копии 5EC2191F
Трек не обнаружен в базе AccurateRip
Копирование... OK
Трек 4
Имя файла G:\Музыка\Lossless\Зануда\Зануда - Папиросы (2010)\04_Фрист От RusKey.wav
Пиковый уровень 100.0 %
Качество трека 99.6 %
CRC теста 429F7883
CRC копии 429F7883
Трек не обнаружен в базе AccurateRip
Копирование... OK
Трек 5
Имя файла G:\Музыка\Lossless\Зануда\Зануда - Папиросы (2010)\05_Забудь (Feat. Тати).wav
Пиковый уровень 100.0 %
Качество трека 100.0 %
CRC теста 4361190B
CRC копии 4361190B
Трек не обнаружен в базе AccurateRip
Копирование... OK
Трек 6
Имя файла G:\Музыка\Lossless\Зануда\Зануда - Папиросы (2010)\06_Папиросы.wav
Пиковый уровень 100.0 %
Качество трека 100.0 %
CRC теста 6E257398
CRC копии 6E257398
Трек не обнаружен в базе AccurateRip
Копирование... OK
Трек 7
Имя файла G:\Музыка\Lossless\Зануда\Зануда - Папиросы (2010)\07_Фон (Feat. D.Masta, Легенды Про (Гад Дым), Смоки Мо).wav
Пиковый уровень 100.0 %
Качество трека 100.0 %
CRC теста 71870A55
CRC копии 71870A55
Трек не обнаружен в базе AccurateRip
Копирование... OK
Трек 8
Имя файла G:\Музыка\Lossless\Зануда\Зануда - Папиросы (2010)\08_Монпасье (Feat. Легенды Про (Быба)).wav
Пиковый уровень 100.0 %
Качество трека 100.0 %
CRC теста B75E16F9
CRC копии B75E16F9
Трек не обнаружен в базе AccurateRip
Копирование... OK
Трек 9
Имя файла G:\Музыка\Lossless\Зануда\Зануда - Папиросы (2010)\09_Скит От 'Легенды Про...'.wav
Пиковый уровень 100.0 %
Качество трека 100.0 %
CRC теста 2F859C74
CRC копии 2F859C74
Трек не обнаружен в базе AccurateRip
Копирование... OK
Трек 10
Имя файла G:\Музыка\Lossless\Зануда\Зануда - Папиросы (2010)\10_Все Пиздато (Feat. Легенды Про (Пёс)).wav
Пиковый уровень 100.0 %
Качество трека 100.0 %
CRC теста 2FA10FF0
CRC копии 2FA10FF0
Трек не обнаружен в базе AccurateRip
Копирование... OK
Трек 11
Имя файла G:\Музыка\Lossless\Зануда\Зануда - Папиросы (2010)\11_Отходос.wav
Пиковый уровень 100.0 %
Качество трека 100.0 %
CRC теста A68A6C7B
CRC копии A68A6C7B
Трек не обнаружен в базе AccurateRip
Копирование... OK
Трек 12
Имя файла G:\Музыка\Lossless\Зануда\Зануда - Папиросы (2010)\12_Мандарины (Feat. Легенды Про (Пёс), Тато).wav
Пиковый уровень 100.0 %
Качество трека 100.0 %
CRC теста AF370CDA
CRC копии AF370CDA
Трек не обнаружен в базе AccurateRip
Копирование... OK
Трек 13
Имя файла G:\Музыка\Lossless\Зануда\Зануда - Папиросы (2010)\13_Не Могу (Feat. Легенды Про (Пёс)).wav
Пиковый уровень 100.0 %
Качество трека 100.0 %
CRC теста 95059D93
CRC копии 95059D93
Трек не обнаружен в базе AccurateRip
Копирование... OK
Трек 14
Имя файла G:\Музыка\Lossless\Зануда\Зануда - Папиросы (2010)\14_На Измене (Feat. RusKey, Легенды Про, А. Бандос).wav
Пиковый уровень 100.0 %
Качество трека 100.0 %
CRC теста A5BEF375
CRC копии A5BEF375
Трек не обнаружен в базе AccurateRip
Копирование... OK
Трек 15
Имя файла G:\Музыка\Lossless\Зануда\Зануда - Папиросы (2010)\15_Так Бывает (Скит От Лизы).wav
Пиковый уровень 100.0 %
Качество трека 100.0 %
CRC теста 03CC9EBA
CRC копии 03CC9EBA
Трек не обнаружен в базе AccurateRip
Копирование... OK
Трек 16
Имя файла G:\Музыка\Lossless\Зануда\Зануда - Папиросы (2010)\16_Нахуй (Feat. Легенды Про (Пёс), Манька).wav
Пиковый уровень 100.0 %
Качество трека 100.0 %
CRC теста 052ABF8D
CRC копии 052ABF8D
Трек не обнаружен в базе AccurateRip
Копирование... OK
Трек 17
Имя файла G:\Музыка\Lossless\Зануда\Зануда - Папиросы (2010)\17_Аутро.wav
Пиковый уровень 100.0 %
Качество трека 99.8 %
CRC теста CD7D1CCF
CRC копии CD7D1CCF
Трек не обнаружен в базе AccurateRip
Копирование... OK
Трек 18
Имя файла G:\Музыка\Lossless\Зануда\Зануда - Папиросы (2010)\18_Тишина.wav
Пиковый уровень 0.0 %
Качество трека 100.0 %
CRC теста 94B5B81B
CRC копии 94B5B81B
Трек не обнаружен в базе AccurateRip
Копирование... OK
Трек 19
Имя файла G:\Музыка\Lossless\Зануда\Зануда - Папиросы (2010)\19_Скит От Купэ.wav
Пиковый уровень 99.4 %
Качество трека 100.0 %
CRC теста B9DC4CD3
CRC копии B9DC4CD3
Трек не обнаружен в базе AccurateRip
Копирование... OK
Трек 20
Имя файла G:\Музыка\Lossless\Зануда\Зануда - Папиросы (2010)\20_Промежутки (Feat. Intigam Milk).wav
Пиковый уровень 95.5 %
Качество трека 100.0 %
CRC теста 9EBBAC05
CRC копии 9EBBAC05
Трек не обнаружен в базе AccurateRip
Копирование... OK
Трек 21
Имя файла G:\Музыка\Lossless\Зануда\Зануда - Папиросы (2010)\21_Все Пиздато (Feat. Легенды Про (Пёс)) (Remix).wav
Пиковый уровень 93.3 %
Качество трека 100.0 %
CRC теста C12C0AA3
CRC копии C12C0AA3
Трек не обнаружен в базе AccurateRip
Копирование... OK
Ни одного трека нет в базе AccurateRip
Ошибок не произошло
Конец отчёта
REM GENRE Rap
REM DATE 2010
REM DISCID 0A0E1315
REM COMMENT "ExactAudioCopy v0.99pb4"
PERFORMER "Зануда"
TITLE "Папиросы"
FILE "01_Интро.wav" WAVE
TRACK 01 AUDIO
TITLE "Интро"
PERFORMER "Зануда"
INDEX 01 00:00:00
FILE "02_Изъяны (Feat. Легенды Про).wav" WAVE
TRACK 02 AUDIO
TITLE "Изъяны (Feat. Легенды Про)"
PERFORMER "Зануда"
INDEX 01 00:00:00
FILE "03_Ел-Пил.wav" WAVE
TRACK 03 AUDIO
TITLE "Ел-Пил"
PERFORMER "Зануда"
INDEX 01 00:00:00
FILE "04_Фрист От RusKey.wav" WAVE
TRACK 04 AUDIO
TITLE "Фрист От RusKey"
PERFORMER "Зануда"
INDEX 01 00:00:00
FILE "05_Забудь (Feat. Тати).wav" WAVE
TRACK 05 AUDIO
TITLE "Забудь (Feat. Тати)"
PERFORMER "Зануда"
INDEX 01 00:00:00
FILE "06_Папиросы.wav" WAVE
TRACK 06 AUDIO
TITLE "Папиросы"
PERFORMER "Зануда"
INDEX 01 00:00:00
FILE "07_Фон (Feat. D.Masta, Легенды Про (Гад Дым), Смоки Мо).wav" WAVE
TRACK 07 AUDIO
TITLE "Фон (Feat. D.Masta, Легенды Про (Гад Дым), Смоки Мо)"
PERFORMER "Зануда"
INDEX 01 00:00:00
FILE "08_Монпасье (Feat. Легенды Про (Быба)).wav" WAVE
TRACK 08 AUDIO
TITLE "Монпасье (Feat. Легенды Про (Быба))"
PERFORMER "Зануда"
INDEX 01 00:00:00
FILE "09_Скит От 'Легенды Про...'.wav" WAVE
TRACK 09 AUDIO
TITLE "Скит От 'Легенды Про...'"
PERFORMER "Зануда"
INDEX 01 00:00:00
FILE "10_Все Пиздато (Feat. Легенды Про (Пёс)).wav" WAVE
TRACK 10 AUDIO
TITLE "Все Пиздато (Feat. Легенды Про (Пёс))"
PERFORMER "Зануда"
INDEX 01 00:00:00
FILE "11_Отходос.wav" WAVE
TRACK 11 AUDIO
TITLE "Отходос"
PERFORMER "Зануда"
INDEX 01 00:00:00
FILE "12_Мандарины (Feat. Легенды Про (Пёс), Тато).wav" WAVE
TRACK 12 AUDIO
TITLE "Мандарины (Feat. Легенды Про (Пёс), Тато)"
PERFORMER "Зануда"
INDEX 01 00:00:00
FILE "13_Не Могу (Feat. Легенды Про (Пёс)).wav" WAVE
TRACK 13 AUDIO
TITLE "Не Могу (Feat. Легенды Про (Пёс))"
PERFORMER "Зануда"
INDEX 01 00:00:00
FILE "14_На Измене (Feat. RusKey, Легенды Про, А. Бандос).wav" WAVE
TRACK 14 AUDIO
TITLE "На Измене (Feat. RusKey, Легенды Про, А. Бандос)"
PERFORMER "Зануда"
INDEX 01 00:00:00
FILE "15_Так Бывает (Скит От Лизы).wav" WAVE
TRACK 15 AUDIO
TITLE "Так Бывает (Скит От Лизы)"
PERFORMER "Зануда"
INDEX 01 00:00:00
FILE "16_Нахуй (Feat. Легенды Про (Пёс), Манька).wav" WAVE
TRACK 16 AUDIO
TITLE "Нахуй (Feat. Легенды Про (Пёс), Манька)"
PERFORMER "Зануда"
INDEX 01 00:00:00
FILE "17_Аутро.wav" WAVE
TRACK 17 AUDIO
TITLE "Аутро"
PERFORMER "Зануда"
INDEX 01 00:00:00
FILE "18_Тишина.wav" WAVE
TRACK 18 AUDIO
TITLE "Тишина"
PERFORMER "Зануда"
INDEX 01 00:00:00
FILE "19_Скит От Купэ.wav" WAVE
TRACK 19 AUDIO
TITLE "Скит От Купэ"
PERFORMER "Зануда"
INDEX 01 00:00:00
FILE "20_Промежутки (Feat. Intigam Milk).wav" WAVE
TRACK 20 AUDIO
TITLE "Промежутки (Feat. Intigam Milk)"
PERFORMER "Зануда"
INDEX 01 00:00:00
FILE "21_Все Пиздато (Feat. Легенды Про (Пёс)) (Remix).wav" WAVE
TRACK 21 AUDIO
TITLE "Все Пиздато (Feat. Легенды Про (Пёс)) (Remix)"
PERFORMER "Зануда"
INDEX 01 00:00:00
AUDIOCHECKER v2.0 beta (build 457) - by Dester - opdester@freemail.hu
~~~~~~~~~~~~~~~~~~~~~~~~~~~~~~~~~~
-=== НЕ РЕДАКТИРУЙТЕ ЭТОТ ФАЙЛ! ===-
Путь: ...\Зануда - Папиросы (2010)
01 -=- 01_Интро.wav -=- CDDA (100%)
02 -=- 02_Изъяны (Feat. Легенды Про).wav -=- CDDA (100%)
03 -=- 03_Ел-Пил.wav -=- CDDA (100%)
04 -=- 04_Фрист От RusKey.wav -=- CDDA (100%)
05 -=- 05_Забудь (Feat. Тати).wav -=- CDDA (99%)
06 -=- 06_Папиросы.wav -=- CDDA (100%)
07 -=- 07_Фон (Feat. D.Masta, Легенды Про (Гад Дым), Смоки Мо).wav -=- CDDA (100%)
08 -=- 08_Монпасье (Feat. Легенды Про (Быба)).wav -=- CDDA (100%)
09 -=- 09_Скит От 'Легенды Про...'.wav -=- CDDA (100%)
10 -=- 10_Все Пиздато (Feat. Легенды Про (Пёс)).wav -=- CDDA (100%)
11 -=- 11_Отходос.wav -=- CDDA (100%)
12 -=- 12_Мандарины (Feat. Легенды Про (Пёс), Тато).wav -=- CDDA (99%)
13 -=- 13_Не Могу (Feat. Легенды Про (Пёс)).wav -=- CDDA (100%)
14 -=- 14_На Измене (Feat. RusKey, Легенды Про, А. Бандос).wav -=- CDDA (100%)
15 -=- 15_Так Бывает (Скит От Лизы).wav -=- CDDA (100%)
16 -=- 16_Нахуй (Feat. Легенды Про (Пёс), Манька).wav -=- CDDA (100%)
17 -=- 17_Аутро.wav -=- CDDA (99%)
18 -=- 18_Тишина.wav -=- CDDA (100%)
19 -=- 19_Скит От Купэ.wav -=- CDDA (100%)
20 -=- 20_Промежутки (Feat. Intigam Milk).wav -=- CDDA (100%)
21 -=- 21_Все Пиздато (Feat. Легенды Про (Пёс)) (Remix).wav -=- CDDA (100%)
Сводка 99,86% CDDA
100129092


Трекер:  [ 10-Янв-2011 15:48 ]

  

Скачать .torrent

Размер .torrent файла 18 KB


Размер: 392 MB
Хэш (hash) релиза: 93e7ae3efef091fb89e54c7b7c06ed4e32298caf

Торренты, похожие на Зануда скачать торрент

Форум Название Автор Размер S L Добавлен
Rap, Hip-Hop, R'n'B (video) ·· Птаха aka Зануда - Видеография [2008-2012 г., Rap, Hip-Hop, WebRip, DvdRip] Galfimbul 12405371101.16 GB 0 0 1362580971

17:42

6-Мар-13

Rap, Hip-Hop, R'n'B ·· Птаха (Зануда) - Не забуду [2012 г., Rap, Hip-Hop, WEBRip] Galfimbul 7333273670 MB 0 0 1338044880

18:08

26-Май-12

Rap, Hip-Hop, R'n'B ·· Три Кита (Зануда, Gipsy King, Тато) - Снег [2012 г., Rap, Hip-Hop, WEBRip] Galfimbul 8018944076 MB 0 0 1336227240

17:14

5-Май-12

Отечественный Rap, Hip-Hop, R'n'B (mp3) ·· (Rap) Зануда aka Птаха & Новый Союз - На месте (Single) - 2011, MP3, 320 kbps AqvaGen 999455610 MB 0 0 1316691128

14:32

22-Сен-11

Электронная музыка (mp3) ·· (House) POSH FRIENDS: Презентация нового клипа Зануда - Папиросы - mixed by dj Noiz - 21.04.2011, MP3, 320 kbps kos_1 149361154142 MB 0 0 1305441924

09:45

15-Май-11

Rap, Hip-Hop, R'n'B (video) ·· Птаха aka Зануда - Видеография [2008-2010 г., Рэп, DvdRip, HD-DvdRip, WebRip, HQ-WebRip, HD-WebRip] Galfimbul 981152969936 MB 0 0 1294834952

15:22

12-Янв-11

Шансон | Авторская песня | Военная песня (mp3) ·· (Шансон) Михаил Водяной "Зануда Манька. Посвящается 70-ти летию Л.Утесова" - 1960, MP3 (tracks), 224 kbps AqvaGen 2301851322 MB 0 0 1291146758

22:52

30-Ноя-10

Отечественный Rap, Hip-Hop, R'n'B (mp3) ·· (Rap,Hip-Hop) Зануда a.k.a. Птаха (CENTR) - Папиросы - 2010, MP3, 320 kbps Ansiegent 144613180138 MB 0 0 1291047918

19:25

29-Ноя-10

Еще никто не оставлял запись к записи скачать торрент Зануда . Будь первым!

!Обратная связь