Скачать через торрент музыку Баста Гуф - 2010, FLAC бесплатно без регистрации torrent

Статистика раздачи
Размер:  397 MB   |    Зарегистрирован:  7 лет 11 месяцев   |    .torrent скачан:  191 раз   |   
Раздают:  1  
   
загрузка...
 
Автор Сообщение

AqvaGen


Баста / Гуф

Жанр: Rap
Страна-производитель диска: Россия
Год издания диска: 2010
Издатель (лейбл): Газгольдер Рекорд
Аудио кодек: FLAC (*.flac)
Тип рипа: tracks+.cue
Битрейт аудио: lossless
Продолжительность: 01:07:10
Наличие сканов в содержимом раздачи: нет

Треклист:
01. Другая волна (scratch Dj Tactics)
02. Ходим по краю
03. Зеркало
04. Если бы... (scratch Dj Mixoid)
05. Как есть
06. Китай (scratch Dj Mixoid)
07. Вязки
08. Заколоченное (scratch Dj Бэка)
09. Соответственно (scratch Dj Tactics)
10. Самурай (scratch Dj Бэка)
11. Не все потеряно пока (scratch Dj Tactics)
12. ЧП
13. Только сегодня
14. Личное дело
Exact Audio Copy V0.99 prebeta 5 from 4. May 2009
EAC extraction logfile from 18. November 2010, 19:53
Basta & Guf / Basta & Guf
Used drive : MATSHITADVD-RAM UJ-850S Adapter: 0 ID: 0
Read mode : Secure
Utilize accurate stream : Yes
Defeat audio cache : Yes
Make use of C2 pointers : No
Read offset correction : 667
Overread into Lead-In and Lead-Out : No
Fill up missing offset samples with silence : Yes
Delete leading and trailing silent blocks : No
Null samples used in CRC calculations : Yes
Used interface : Native Win32 interface for Win NT & 2000
Gap handling : Appended to previous track
Used output format : Internal WAV Routines
Sample format : 44.100 Hz; 16 Bit; Stereo
TOC of the extracted CD
Track | Start | Length | Start sector | End sector
---------------------------------------------------------
1 | 0:00.00 | 5:03.41 | 0 | 22765
2 | 5:03.41 | 3:40.07 | 22766 | 39272
3 | 8:43.48 | 5:24.08 | 39273 | 63580
4 | 14:07.56 | 5:25.38 | 63581 | 87993
5 | 19:33.19 | 5:14.63 | 87994 | 111606
6 | 24:48.07 | 4:41.06 | 111607 | 132687
7 | 29:29.13 | 5:28.62 | 132688 | 157349
8 | 34:58.00 | 4:09.37 | 157350 | 176061
9 | 39:07.37 | 3:58.11 | 176062 | 193922
10 | 43:05.48 | 5:12.01 | 193923 | 217323
11 | 48:17.49 | 4:07.73 | 217324 | 235921
12 | 52:25.47 | 5:15.13 | 235922 | 259559
13 | 57:40.60 | 5:39.67 | 259560 | 285051
14 | 63:20.52 | 3:49.26 | 285052 | 302252
Track 1
Filename C:\Documents and Settings\Fister\Рабочий стол\Баста и Гуф (2010) Flac\01 Basta & Guf - 01 Drugaya volna (scratch Dj Tactics).wav
Pre-gap length 0:00:02.00
Peak level 99.9 %
Track quality 100.0 %
Test CRC 9A21FDB3
Copy CRC 9A21FDB3
Copy OK
Track 2
Filename C:\Documents and Settings\Fister\Рабочий стол\Баста и Гуф (2010) Flac\02 Basta & Guf - 02 Hodim po krayu.wav
Peak level 99.9 %
Track quality 100.0 %
Test CRC 6E1DFFFF
Copy CRC 6E1DFFFF
Copy OK
Track 3
Filename C:\Documents and Settings\Fister\Рабочий стол\Баста и Гуф (2010) Flac\03 Basta & Guf - 03 Zerkalo.wav
Peak level 99.9 %
Track quality 99.9 %
Test CRC 976B65F3
Copy CRC 976B65F3
Copy OK
Track 4
Filename C:\Documents and Settings\Fister\Рабочий стол\Баста и Гуф (2010) Flac\04 Basta & Guf - 04 Esli by... (scratch Dj Mixoid).wav
Peak level 99.9 %
Track quality 100.0 %
Test CRC B269964A
Copy CRC B269964A
Copy OK
Track 5
Filename C:\Documents and Settings\Fister\Рабочий стол\Баста и Гуф (2010) Flac\05 Basta & Guf - 05 Kak est'.wav
Peak level 99.9 %
Track quality 100.0 %
Test CRC 7C7C0F85
Copy CRC 7C7C0F85
Copy OK
Track 6
Filename C:\Documents and Settings\Fister\Рабочий стол\Баста и Гуф (2010) Flac\06 Basta & Guf - 06 Kitay (scratch Dj Mixoid).wav
Peak level 99.9 %
Track quality 100.0 %
Test CRC AA5A3AC5
Copy CRC AA5A3AC5
Copy OK
Track 7
Filename C:\Documents and Settings\Fister\Рабочий стол\Баста и Гуф (2010) Flac\07 Basta & Guf - 07 Vyazki.wav
Peak level 99.9 %
Track quality 100.0 %
Test CRC EB668ED7
Copy CRC EB668ED7
Copy OK
Track 8
Filename C:\Documents and Settings\Fister\Рабочий стол\Баста и Гуф (2010) Flac\08 Basta & Guf - 08 Zakolochennoe (scratch Dj Beka).wav
Peak level 99.9 %
Track quality 100.0 %
Test CRC EFFC1E69
Copy CRC EFFC1E69
Copy OK
Track 9
Filename C:\Documents and Settings\Fister\Рабочий стол\Баста и Гуф (2010) Flac\09 Basta & Guf - 09 Sootvetstvenno (scratch Dj Tactics).wav
Peak level 99.9 %
Track quality 100.0 %
Test CRC 408D368C
Copy CRC 408D368C
Copy OK
Track 10
Filename C:\Documents and Settings\Fister\Рабочий стол\Баста и Гуф (2010) Flac\10 Basta & Guf - 10 Samurai (scratch Dj Beka).wav
Peak level 99.9 %
Track quality 100.0 %
Test CRC D9819913
Copy CRC D9819913
Copy OK
Track 11
Filename C:\Documents and Settings\Fister\Рабочий стол\Баста и Гуф (2010) Flac\11 Basta & Guf - 11 Ne vsyo poteryano poka (scratch Dj Tactics).wav
Peak level 99.9 %
Track quality 100.0 %
Test CRC 0A36545A
Copy CRC 0A36545A
Copy OK
Track 12
Filename C:\Documents and Settings\Fister\Рабочий стол\Баста и Гуф (2010) Flac\12 Basta & Guf - 12 Ch p.wav
Peak level 100.0 %
Track quality 100.0 %
Test CRC F93FE645
Copy CRC F93FE645
Copy OK
Track 13
Filename C:\Documents and Settings\Fister\Рабочий стол\Баста и Гуф (2010) Flac\13 Basta & Guf - 13 Tolko segodnya.wav
Peak level 99.9 %
Track quality 100.0 %
Test CRC DCBA4C44
Copy CRC DCBA4C44
Copy OK
Track 14
Filename C:\Documents and Settings\Fister\Рабочий стол\Баста и Гуф (2010) Flac\14 Basta & Guf - 14 Lichnoe delo.wav
Peak level 100.0 %
Track quality 100.0 %
Test CRC 581BD471
Copy CRC 581BD471
Copy OK
No errors occurred
End of status report
REM DISCID C90FBE0E
REM COMMENT "ExactAudioCopy v0.99pb5"
PERFORMER "Баста / Гуф"
TITLE "Баста / Гуф"
FILE "01 Баста & Гуф - 01 Другая волна (scratch Dj Tactics).wav" WAVE
TRACK 01 AUDIO
TITLE "01 Другая волна (scratch Dj Tactics)"
PERFORMER "Баста / Гуф"
INDEX 01 00:00:00
FILE "02 Баста & Гуф - 02 Ходим по краю.wav" WAVE
TRACK 02 AUDIO
TITLE "02 Ходим по краю"
PERFORMER "Баста / Гуф"
INDEX 01 00:00:00
FILE "03 Баста & Гуф - 03 Зеркало.wav" WAVE
TRACK 03 AUDIO
TITLE "03 Зеркало"
PERFORMER "Баста / Гуф"
INDEX 01 00:00:00
FILE "04 Баста & Гуф - 04 Если бы... (scratch Dj Mixoid).wav" WAVE
TRACK 04 AUDIO
TITLE "04 Если бы... (scratch Dj Mixoid)"
PERFORMER "Баста / Гуф"
INDEX 01 00:00:00
FILE "05 Баста & Гуф - 05 Как есть.wav" WAVE
TRACK 05 AUDIO
TITLE "05 Как есть"
PERFORMER "Баста / Гуф"
INDEX 01 00:00:00
FILE "06 Баста & Гуф - 06 Китай (scratch Dj Mixoid).wav" WAVE
TRACK 06 AUDIO
TITLE "06 Китай (scratch Dj Mixoid)"
PERFORMER "Баста / Гуф"
INDEX 01 00:00:00
FILE "07 Баста & Гуф - 07 Вязки.wav" WAVE
TRACK 07 AUDIO
TITLE "07 Вязки"
PERFORMER "Баста / Гуф"
INDEX 01 00:00:00
FILE "08 Баста & Гуф - 08 Заколоченное (scratch Dj Beka).wav" WAVE
TRACK 08 AUDIO
TITLE "08 Заколоченное (scratch Dj Beka)"
PERFORMER "Баста / Гуф"
INDEX 01 00:00:00
FILE "09 Баста & Гуф - 09 Соответственно (scratch Dj Tactics).wav" WAVE
TRACK 09 AUDIO
TITLE "09 Соответственно (scratch Dj Tactics)"
PERFORMER "Баста / Гуф"
INDEX 01 00:00:00
FILE "10 Баста & Гуф - 10 Самурай (scratch Dj Beka).wav" WAVE
TRACK 10 AUDIO
TITLE "10 Самурай (scratch Dj Beka)"
PERFORMER "Баста / Гуф"
INDEX 01 00:00:00
FILE "11 Баста & Гуф - 11 Не все потеряно пока (scratch Dj Tactics).wav" WAVE
TRACK 11 AUDIO
TITLE "11 Не все потеряно пока (scratch Dj Tactics)"
PERFORMER "Баста / Гуф"
INDEX 01 00:00:00
FILE "12 Баста & Гуф - 12 ЧП.wav" WAVE
TRACK 12 AUDIO
TITLE "12 ЧП"
PERFORMER "Баста / Гуф"
INDEX 01 00:00:00
FILE "13 Баста & Гуф - 13 Только сегодня.wav" WAVE
TRACK 13 AUDIO
TITLE "13 Только сегодня"
PERFORMER "Баста / Гуф"
INDEX 01 00:00:00
FILE "14 Баста & Гуф - 14 Личное дело.wav" WAVE
TRACK 14 AUDIO
TITLE "14 Личное дело"
PERFORMER "Баста / Гуф"
INDEX 01 00:00:00
AUDIOCHECKER v2.0 beta (build 457) - by Dester - opdester@freemail.hu
~~~~~~~~~~~~~~~~~~~~~~~~~~~~~~~~~~
-=== DO NOT EDIT THIS FILE! ===-
Path: ...\Баста и Гуф (2010) Flac
01 -=- 01 Баста & Гуф - 01 Другая волна (scratch Dj Tactics).flac -=- CDDA (100%)
02 -=- 02 Баста & Гуф - 02 Ходим по краю.flac -=- CDDA (100%)
03 -=- 03 Баста & Гуф - 03 Зеркало.flac -=- CDDA (100%)
04 -=- 04 Баста & Гуф - 04 Если бы... (scratch Dj Mixoid).flac -=- CDDA (100%)
05 -=- 05 Баста & Гуф - 05 Как есть.flac -=- CDDA (100%)
06 -=- 06 Баста & Гуф - 06 Китай (scratch Dj Mixoid).flac -=- CDDA (100%)
07 -=- 07 Баста & Гуф - 07 Вязки.flac -=- CDDA (100%)
08 -=- 08 Баста & Гуф - 08 Заколоченное (scratch Dj Beka).flac -=- CDDA (100%)
09 -=- 09 Баста & Гуф - 09 Соответственно (scratch Dj Tactics).flac -=- CDDA (100%)
10 -=- 10 Баста & Гуф - 10 Самурай (scratch Dj Beka).flac -=- CDDA (100%)
11 -=- 11 Баста & Гуф - 11 Не все потеряно пока (scratch Dj Tactics).flac -=- CDDA (100%)
12 -=- 12 Баста & Гуф - 12 ЧП.flac -=- CDDA (100%)
13 -=- 13 Баста & Гуф - 13 Только сегодня.flac -=- CDDA (99%)
14 -=- 14 Баста & Гуф - 14 Личное дело.flac -=- CDDA (100%)
Summary 99,93% CDDA
157231060


Трекер:  [ 10-Янв-2011 15:31 ]

  

Скачать .torrent

Размер .torrent файла 18 KB


Размер: 397 MB
Хэш (hash) релиза: e4d881873fcd2c5983436a9655adea98e5f6d960

Еще никто не оставлял запись к записи скачать торрент Баста Гуф - 2010, FLAC . Будь первым!

!Обратная связь