Скачать через торрент музыку Take That - Progress Live бесплатно без регистрации torrent

Статистика раздачи
Размер:  6.56 GB   |    Зарегистрирован:  6 лет 11 месяцев   |    .torrent скачан:  131 раз   |   
Раздают:  1  
   
загрузка...
 
Автор Сообщение

L




Take That - Progress Live


Жанр: Поп, Соул
Продолжительность: 02:15:57
Год выпуска: 2011
Описание: In 2011 Take That embarked on the biggest tour the UK and Ireland had ever seen, breaking all previous records. The Progress Live Tour went through 29 UK stadiums and played to over 1.8 million people. The double disc blu-ray includes the band’s entire epic-live show and a bonus disc featuring exclusive behind the scenes footage, filmed across the 29 UK dates, giving a unique insight into life on the road of one of the most successful bands in UK history.
Named after the three-million-plus selling Progress album that reunited them, the Progress Live 2011 tour, was the first time the band had toured together as a five-piece (Gary Barlow, Howard Donald, Jason Orange, Mark Owen and Robbie Williams) since 1995. The tour's huge production included roller skating bees, a giant purple caterpillar, shaolin monks, dancing chess pieces, a massive 75 foot wall of water, scaled by acrobatic, gravity defying dancers, a huge 60 foot robot nick-named OM who moved down through the audience throughout the set. The entire set was presided over by the "‘big man", a massive head and shoulder structure with lasers for eyes, 150 feet above, looking out over the crowds on the top of the stage.

Качество: BDRip 720p
Контейнер: MKV
Видео кодек: MPEG-4
Аудио кодек: DTS
Видео: MPEG-4, 5389 Kbps, 1280х720, 29.970 fps
Аудио: DTS, 1 510 Kbps, 6 сh
General
Unique ID : 186873515005261959941817234091082464051 (0x8C9687A35795FF2A934E051D22433B33)
Complete name : D:\Take.That.Progress.Live.2011.Blu-ray.720p.x264.DTS.mkv
Format : Matroska
Format version : Version 2
File size : 6.56 GiB
Duration : 2h 16mn
Overall bit rate : 6 863 Kbps
Encoded date : UTC 2011-12-05 17:21:11
Writing application : mkvmerge v3.4.0 ('Rapunzel') built on May 15 2010 09:38:20
Writing library : libebml v0.8.0 + libmatroska v0.9.0

Video
ID : 1
Format : AVC
Format/Info : Advanced Video Codec
Format profile : High@L4.1
Format settings, CABAC : Yes
Format settings, ReFrames : 8 frames
Codec ID : V_MPEG4/ISO/AVC
Duration : 2h 16mn
Bit rate : 5 389 Kbps
Width : 1 280 pixels
Height : 720 pixels
Display aspect ratio : 16:9
Frame rate : 29.970 fps
Color space : YUV
Chroma subsampling : 4:2:0
Bit depth : 8 bits
Scan type : Progressive
Bits/(Pixel*Frame) : 0.195
Stream size : 4.99 GiB (76%)
Title : Take.That.Progress.Live.2011.Blu-ray.720p.x264.DTS.MySilu
Writing library : x264 core 119 r2106 07efeb4
Encoding settings : cabac=1 / ref=8 / deblock=1:-2:-2 / analyse=0x3:0x133 / me=umh / subme=9 / psy=1 / psy_rd=1.20:0.20 / mixed_ref=1 / me_range=16 / chroma_me=1 / trellis=2 / 8x8dct=1 / cqm=0 / deadzone=21,11 / fast_pskip=1 / chroma_qp_offset=-3 / threads=6 / sliced_threads=0 / nr=0 / decimate=0 / interlaced=0 / bluray_compat=0 / constrained_intra=0 / bframes=3 / b_pyramid=2 / b_adapt=2 / b_bias=0 / direct=3 / weightb=1 / open_gop=0 / weightp=2 / keyint=250 / keyint_min=2 / scenecut=40 / intra_refresh=0 / rc_lookahead=60 / rc=2pass / mbtree=1 / bitrate=5389 / ratetol=1.0 / qcomp=0.60 / qpmin=10 / qpmax=51 / qpstep=4 / cplxblur=20.0 / qblur=0.5 / vbv_maxrate=38000 / vbv_bufsize=38000 / nal_hrd=none / ip_ratio=1.40 / aq=1:1.00
Language : English

Audio
ID : 2
Format : DTS
Format/Info : Digital Theater Systems
Codec ID : A_DTS
Duration : 2h 16mn
Bit rate mode : Constant
Bit rate : 1 510 Kbps
Channel(s) : 6 channels
Channel positions : Front: L C R, Side: L R, LFE
Sampling rate : 48.0 KHz
Bit depth : 24 bits
Compression mode : Lossy
Stream size : 1.44 GiB (22%)
Language : English
01. Rule The World
02. Greatest Day
03. Hold Up A Light
04. Patience
05. Shine
06. Let Me Entertain You
07. Rock DJ
08. Come Undone
09. Feel
10. Angels
11. The Flood
12. SOS
13. Underground Machine
14. Kidz
15. Pretty Things
16. When They Were Young Medley*
17. Back For Good
18. Pray
19. Love Love
20. Never Forget
21. No Regrets/Relight My Fire
22. Eight Letters


Трекер:  [ 20-Дек-2011 17:59 ]

  

Скачать .torrent

Размер .torrent файла 33 KB


Размер: 6.56 GB
Хэш (hash) релиза: e29f1dea4525b8bd570eb54d9eb7338623949235

Торренты, похожие на Take That - Progress Live скачать торрент

Форум Название Автор Размер S L Добавлен
Поп-музыка, Eurodance, Disco (video) ·· Take That - Progress Live [2011 г., Pop, BDRip] L 23442513922.18 GB 0 0 1324393094

17:58

20-Дек-11

Еще никто не оставлял запись к записи скачать торрент Take That - Progress Live . Будь первым!

!Обратная связь