Скачать через торрент Только не они Фильм бесплатно в хорошем качестве torrent

Скачивайте на UnionPeer.org фильмы через торрент без регистрации. Новинки кино в хорошем качестве через торрент. На UnionPeer.org можно скачать через торрент фильмы 2014 и 2015 годов. Самые новые фильмы.

Скачать торрент Только не они бесплатно через .torrent фильм мультфильм сериал

Статистика раздачи
Размер:  1.99 GB   |    Зарегистрирован:  26 дней   |    .torrent скачан:  187 раз   |   
Раздают:  1  
   
загрузка...
 
Автор Сообщение

Galfimbul

avatar Galfimbul


Только не они



[b]Год выхода:
2018
Жанр: комедия
Режиссер: Александр Бойков
В ролях: Дарья Храмцова, Полина Максимова, Юлия Хлынина, Данил Стеклов, Денис Бузин, Сергей Дубров, Сергей Якимович, Владимир Стеклов, Александр Семчев, Сергей Белоголовцев

О фильме: Когда мир в опасности, обычно на помощь приходят супергерои. Все знают, что они храбрее, умнее и сильнее нас. Но что, если вселенная решит развлечься, и миссия по спасению человечества ляжет на слабенькие плечи двадцатилетних тусовщиков и пофигистов?

Математик, Мажор, Рокер, Стерва, Псих, Блондинка и Неудачница просыпаются после бурной вечеринки с интригующим названием «Конец света» и обнаруживают опустевший полуразрушенный город. На них открыта охота, а на горизонте маячит уже самый настоящий апокалипсис. И остановить его мог бы кто угодно… но только не они!




Страна: Россия / Art Pictures Studio,BB Production & Promotion
Продолжительность: 01:36:43
Перевод: Не требуется [iTunes]

Файл
Качество: WEB-DLRip-AVC
Формат: MKV
Видео: MPEG-4 AVC, 2600 Кбит/сек, 1024x428
Звук: AC3, 6 ch, 384 Кбит/сек
Субтитры: нет
Дополнительно: Сохранены оригинальные главы (чаптеры)
Общее
Уникальный идентификатор : 10265701118661888532754865471501405115 (0x7B91A246F650ADA9B6571E895DC8BBB)
Полное имя : E:Только не они.2O18.WEB-DLRip-AVC.mkv
Формат : Matroska
Версия формата : Version 4
Размер файла : 1,99 Гбайт
Продолжительность : 1 ч. 36 м.
Общий поток : 2946 Кбит/сек
Программа кодирования : XviD4PSP 7.0.459 DAILY
Библиотека кодирования : Lavf57.71.100
Авторское право : [#ZsU®]
ErrorDetectionType : Per level 1
Attachments : poster.jpg
ENCODING_INFO : MATROSKA,WEBM > MKV Пользовательский / H264 > X264 ABR 2600kbps HQ / AC3 > AC3 CBR 384kbps
Язык : und

Видео
Идентификатор : 1
Формат : AVC
Формат/Информация : Advanced Video Codec
Профиль формата : High@L4.1
Настройки формата : CABAC / 10 Ref Frames
Параметр CABAC формата : Да
Параметр RefFrames формата : 10 кадров
Идентификатор кодека : V_MPEG4/ISO/AVC
Продолжительность : 1 ч. 36 м.
Битрейт : 2600 Кбит/сек
Ширина : 1024 пикселя
Высота : 428 пикселей
Соотношение сторон : 2,40:1
Режим частоты кадров : Постоянный
Частота кадров : 23,976 (24000/1001) кадра/сек
Цветовое пространство : YUV
Субдискретизация насыщенности : 4:2:0
Битовая глубина : 8 бит
Тип развёртки : Прогрессивная
Бит/(Пиксели*Кадры) : 0.247
Размер потока : 1,69 Гбайт (85%)
Библиотека кодирования : x264 core 157 r2901M 7d0ff22
Настройки программы : cabac=1 / ref=11 / deblock=1:-3:-3 / analyse=0x3:0x133 / me=umh / subme=11 / psy=1 / psy_rd=1.00:0.20 / mixed_ref=1 / me_range=32 / chroma_me=1 / trellis=2 / 8x8dct=1 / cqm=0 / deadzone=21,11 / fast_pskip=1 / chroma_qp_offset=-3 / threads=12 / lookahead_threads=1 / sliced_threads=0 / nr=0 / decimate=1 / interlaced=0 / bluray_compat=0 / constrained_intra=0 / bframes=11 / b_pyramid=1 / b_adapt=1 / b_bias=11 / direct=1 / weightb=1 / open_gop=0 / weightp=1 / keyint=240 / keyint_min=24 / scenecut=40 / intra_refresh=0 / rc_lookahead=40 / rc=abr / mbtree=1 / bitrate=2600 / ratetol=1.0 / qcomp=0.60 / qpmin=0 / qpmax=69 / qpstep=4 / ip_ratio=1.40 / aq=1:1.00
Язык : English
Default : Да
Forced : Нет
Цветовой диапазон : Limited
Основные цвета : BT.709
Характеристики трансфера : BT.709
Коэффициенты матрицы : BT.709

Аудио
Идентификатор : 2
Формат : AC-3
Формат/Информация : Audio Coding 3
Коммерческое название : Dolby Digital
Идентификатор кодека : A_AC3
Продолжительность : 1 ч. 36 м.
Вид битрейта : Постоянный
Битрейт : 384 Кбит/сек
Каналы : 6 каналов
Channel layout : L R C LFE Ls Rs
Частота : 48,0 КГц
Частота кадров : 31,250 кадров/сек (1536 SPF)
Битовая глубина : 16 бит
Метод сжатия : С потерями
Размер потока : 266 Мбайт (13%)
Заголовок : iTunes
Язык : Russian
Default : Да
Forced : Нет

Меню
00:00:00.000 : :Глава 1
00:05:28.875 : :Глава 2
00:12:05.458 : :Глава 3
00:21:30.374 : :Глава 4
00:28:14.040 : :Глава 5
00:34:50.748 : :Глава 6
00:42:39.581 : :Глава 7
00:51:44.456 : :Глава 8
00:59:41.372 : :Глава 9
01:04:39.955 : :Глава 10
01:11:29.205 : :Глава 11
01:19:54.871 : :Глава 12
01:27:28.079 : :Глава 13
СЕМПЛ
Источник http://BlaTor.org

Трекер:  [ 22-Ноя-2018 19:00 ]

  

Скачать .torrent

Размер .torrent файла 20 KB


Размер: 1.99 GB
Хэш (hash) релиза: 18e49624f7d53bce70e55181856cc2ee7b1c9b5d
Подписка на обновления:

Еще никто не оставлял запись к записи скачать торрент Только не они . Будь первым!

!Обратная связь