Скачать через торрент Пришельцы в доме Luis and His Friends from Outer Space Фильм бесплатно в хорошем качестве torrent

Скачивайте на UnionPeer.org фильмы через торрент без регистрации. Новинки кино в хорошем качестве через торрент. На UnionPeer.org можно скачать через торрент фильмы 2014 и 2015 годов. Самые новые фильмы.

Скачать торрент Пришельцы в доме Luis and His Friends from Outer Space бесплатно через .torrent фильм мультфильм сериал

Статистика раздачи
Размер:  1.52 GB   |    Зарегистрирован:  1 месяц 7 дней   |    .torrent скачан:  232 раза   |   
Раздают:  1  
   
загрузка...
 
Автор Сообщение

Galfimbul

avatar Galfimbul


Пришельцы в доме / Luis and His Friends from Outer Space
«Выгони их, если сможешь»


Год выпуска: 2018
Страна: Германия, Люксембург, Дания
Производство: Ulysses Filmproduktion, Fabrique d'Images, A. Film
Жанр: Мультфильм, фантастика, комедия, приключения, семейный, полнометражный

Режиссёр: Кристоф Лауэнштайн, Вольфганг Лауэнштайн, Шон МакКормак
В ролях: Каллум Малони, Дермот Магеннис, Йен Коппингер, Пол Тайлак, Люси Кэролан, Эйн Дэйли, Эйлин Митен, Саймон Тоул, Данна Дэвис, Сьюзи Пауэр

Перевод: Дублированный | [iTunes]
Субтитры: Нет
Реклама: Отсутствует

Описание: У 12-летнего Луиса нет друзей, а у его отца постоянно не хватает на него времени. Тот страстно увлечен уфологией и даже не догадывается, что те, кого он так жаждет найти, находятся прямо у него перед носом. Луис становится единственным свидетелем аварийной посадки трех чудаковатых инопланетян рядом с их домом. Троица пришельцев быстро находит общий язык с мальчиком. Они ведут себя точь-в-точь как озорные подростки, и обладают к тому же совершенно удивительной способностью — перевоплощаться в любое живое существо. Луис еще никогда так не веселился, как рядом с ними. Но он быстро понимает, что если взрослые узнают о его тайне, ничем хорошим это не закончится. Поэтому он решает помочь им починить тарелку и улететь вместе с ними…



Качество: WEB-DLRip-AVC | iTunes Version |
Продолжительность: 01:25:34

Формат: MKV
Видео кодек: MPEG-4 AVC
Аудио кодек: AC3
Видео: 1024x554 (1.85:1), 23,976 fps, x264 ~2 154 kbps avg, 0.158 bit/pixel
Аудио #1: 48 kHz, AC3 Dolby Digital Plus, 3/2 (L,C,R,l,r) + LFE ch, ~384.00 kbps avg | RUS (iTunes)

Дата премьеры (мир): 2 марта 2018
Дата премьеры (РФ): 4 октября 2018, «Наше Кино»
Цифровой релиз:
Общее
Уникальный идентификатор : 61199863389745578057564630477031641458 (0x2E0AAA3A20EB5C24B05EEF8820589172)
Полное имя : F:OlLanDGroupLuis.and.His.Friends.from.Outer.Space.2018.WEB-DLRip(AVC).OlLanDGroup.mkv
Формат : Matroska
Версия формата : Version 4 / Version 2
Размер файла : 1,52 Гбайт
Продолжительность : 1 ч. 25 м.
Общий поток : 2537 Кбит/сек
Название фильма : Luis.and.His.Friends.from.Outer.Space.2018 #TorpedoUK#
Дата кодирования : UTC 2018-11-11 11:34:07
Программа кодирования : mkvmerge v25.0.0 ('Prog Noir') 64-bit
Библиотека кодирования : libebml v1.3.6 + libmatroska v1.4.9

Видео
Идентификатор : 1
Формат : AVC
Формат/Информация : Advanced Video Codec
Профиль формата : High@L4.1
Параметр CABAC формата : Да
Параметр ReFrames формата : 10 кадров
Идентификатор кодека : V_MPEG4/ISO/AVC
Продолжительность : 1 ч. 25 м.
Битрейт : 2154 Кбит/сек
Ширина : 1024 пикселя
Высота : 554 пикселя
Соотношение сторон : 1,85:1
Режим частоты кадров : Постоянный
Частота кадров : 24,000 кадра/сек
Цветовое пространство : YUV
Субдискретизация насыщенности : 4:2:0
Битовая глубина : 8 бит
Тип развёртки : Прогрессивная
Бит/(Пиксели*Кадры) : 0.158
Размер потока : 1,29 Гбайт (85%)
Библиотека кодирования : x264 core 146 r2538 121396c
Настройки программы : cabac=1 / ref=10 / deblock=1:-3:-3 / analyse=0x3:0x113 / me=umh / subme=10 / psy=1 / psy_rd=0.97:0.05 / mixed_ref=1 / me_range=48 / chroma_me=1 / trellis=2 / 8x8dct=1 / cqm=0 / deadzone=21,11 / fast_pskip=1 / chroma_qp_offset=-3 / threads=6 / lookahead_threads=1 / sliced_threads=0 / nr=0 / decimate=1 / interlaced=0 / bluray_compat=0 / constrained_intra=0 / bframes=11 / b_pyramid=2 / b_adapt=2 / b_bias=0 / direct=3 / weightb=1 / open_gop=0 / weightp=2 / keyint=240 / keyint_min=24 / scenecut=40 / intra_refresh=0 / rc_lookahead=40 / rc=2pass / mbtree=0 / bitrate=2154 / ratetol=1.0 / qcomp=0.60 / qpmin=0 / qpmax=69 / qpstep=4 / cplxblur=20.0 / qblur=0.5 / vbv_maxrate=50000 / vbv_bufsize=62500 / nal_hrd=none / filler=0 / ip_ratio=1.40 / pb_ratio=1.30 / aq=1:1.00
Язык : English
Default : Да
Forced : Нет

Аудио
Идентификатор : 2
Формат : AC-3
Формат/Информация : Audio Coding 3
Расширение режима : CM (complete main)
Параметр Endianness формата : Big
Идентификатор кодека : A_AC3
Продолжительность : 1 ч. 25 м.
Вид битрейта : Постоянный
Битрейт : 384 Кбит/сек
Каналы : 6 каналов
Расположение каналов : Front: L C R, Side: L R, LFE
Частота : 48,0 КГц
Частота кадров : 31,250 кадров/сек (1536 spf)
Битовая глубина : 16 бит
Метод сжатия : С потерями
Размер потока : 235 Мбайт (15%)
Заголовок : DUB [iTunes]
Язык : Russian
Default : Да
Forced : Нет

Меню
00:00:00.000 : en:Глава 1
00:07:50.291 : en:Глава 2
00:15:41.957 : en:Глава 3
00:23:48.790 : en:Глава 4
00:29:10.790 : en:Глава 5
00:34:52.706 : en:Глава 6
00:42:35.664 : en:Глава 7
00:48:18.205 : en:Глава 8
00:53:51.413 : en:Глава 9
00:59:58.079 : en:Глава 10
01:06:02.662 : en:Глава 11
01:13:56.537 : en:Глава 12
Источник http://BlaTor.org

Трекер:  [ 11-Ноя-2018 20:00 ]

  

Скачать .torrent

Размер .torrent файла 15 KB


Размер: 1.52 GB
Хэш (hash) релиза: 1cbe7dc330bb780ac6c7976d4781d27c2faeb8c9
Подписка на обновления:

Торренты, похожие на Пришельцы в доме Luis and His Friends from Outer Space скачать торрент

Форум Название Автор Размер S L Добавлен
Мультфильмы 2016-2018 (Новинки мультфильмов) ·%· Пришельцы в доме / Luis and His Friends from Outer Space (2018) WEB-DLRip | iTunes Galfimbul 781144064745 MB 0 0 1541816505

05:21

10-Ноя-18

Еще никто не оставлял запись к записи скачать торрент Пришельцы в доме Luis and His Friends from Outer Space . Будь первым!

!Обратная связь