Скачать через торрент Гибриды Hybrids Фильм бесплатно в хорошем качестве torrent

Скачивайте на UnionPeer.org фильмы через торрент без регистрации. Новинки кино в хорошем качестве через торрент. На UnionPeer.org можно скачать через торрент фильмы 2014 и 2015 годов. Самые новые фильмы.

Скачать торрент Гибриды Hybrids бесплатно через .torrent фильм мультфильм сериал

Статистика раздачи
Размер:  42 MB   |    Зарегистрирован:  17 дней   |    .torrent скачан:  247 раз   |   
Раздают:  1  
   
загрузка...
 
Автор Сообщение

Galfimbul

avatar Galfimbul


Гибриды /Hybrids

Год выхода: 2017
Жанр: Короткометражка
Режиссер: Флориан Браух

О фильме: Когда морская дикая природа должна адаптироваться к загрязнению окружающей среды, правила выживания меняются. Эко-ответственный анимационный короткометражный фильм CG, снятый пятью французскими 3D-художниками во время учёбы в MoPA, анимационной школе во Франции.



Страна: Франция
Продолжительность: 00:06:19
Перевод: Не требуется

Файл
Кодек: XviD
Качество: WEBRip
Видео: 720x304 (2.37:1), 24 fps, XviD build 73 ~789 kbps avg, 0.15 bit/pixel
Звук: 48 kHz, MPEG Layer 3, 2 ch, ~128.00 kbps avg
General
Complete name : Hybrids.2017.WEBRip.Portablius.avi
Format : AVI
Format/Info : Audio Video Interleave
File size : 41.9 MiB
Duration : 6 min 19 s
Overall bit rate : 927 kb/s
Writing library : VirtualDub build 35491/release

Video
ID : 0
Format : MPEG-4 Visual
Format profile : Advanced Simple@L5
Format settings, BVOP : 1
Format settings, QPel : No
Format settings, GMC : No warppoints
Format settings, Matrix : Custom
Codec ID : XVID
Codec ID/Hint : XviD
Duration : 6 min 19 s
Bit rate : 789 kb/s
Width : 720 pixels
Height : 304 pixels
Display aspect ratio : 2.35:1
Frame rate : 24.000 FPS
Color space : YUV
Chroma subsampling : 4:2:0
Bit depth : 8 bits
Scan type : Progressive
Compression mode : Lossy
Bits/(Pixel*Frame) : 0.150
Stream size : 35.7 MiB (85%)
Writing library : XviD 73

Audio
ID : 1
Format : MPEG Audio
Format version : Version 1
Format profile : Layer 3
Mode : Joint stereo
Mode extension : MS Stereo
Codec ID : 55
Codec ID/Hint : MP3
Duration : 6 min 19 s
Bit rate mode : Constant
Bit rate : 128 kb/s
Channel(s) : 2 channels
Sampling rate : 48.0 kHz
Compression mode : Lossy
Stream size : 5.79 MiB (14%)
Alignment : Split accross interleaves
Interleave, duration : 42 ms (1.00 video frame)
Interleave, preload duratio : 500 ms
Writing library : LAME3.99 (alpha)
Источник http://BlaTor.org

Трекер:  [ 02-Ноя-2018 10:10 ]

  

Скачать .torrent

Размер .torrent файла 13 KB


Размер: 42 MB
Хэш (hash) релиза: 8112540fee4d4558aafa4eab785b613911779bbf
Подписка на обновления:

Торренты, похожие на Гибриды Hybrids скачать торрент

Форум Название Автор Размер S L Добавлен
Зарубежные фильмы до 2016 ·· Гибрид / Hybrid / Super Hybrid (Эрик Валетт / Eric Valette) [2010 г., США, Германия, ужасы, триллер, BDRip, 720p] MVO, Eng (Original) + Sub (Eng) L 50062326904.66 GB 0 0 1321106427

17:00

12-Ноя-11

Зарубежные фильмы до 2016 ·· Гибрид / Hybrid (Эрик Валетт) [2010, Триллер, Ужасы, HDRip] Лицензия Phoenix 14780477441.38 GB 0 0 1316346493

14:48

18-Сен-11

PSP | Аниме ·· [ONG]Магическая академия Атараксия: Гибрид x Сердце / Masou Gakuen HxH / Hybrid x Heart Magias Academy Ataraxia( Фурукава Хироюки)[TV][12 из 12] [2016 г., приключения, комедия, этти, HDTVRip][Субтитры] Galfimbul 11496771101.07 GB 0 0 1474987177

17:39

27-Сен-16

PSP | Аниме ·· [ONG]Магическая академия Атараксия: Гибрид x Сердце / Masou Gakuen HxH / Hybrid x Heart Magias Academy Ataraxia( Фурукава Хироюки)[TV][11 из 12] [2016 г., приключения, комедия, этти, HDTVRip][Субтитры] Galfimbul 10539933561005 MB 0 0 1474395431

21:17

20-Сен-16

PSP | Аниме ·· [ONG]Магическая академия Атараксия: Гибрид x Сердце / Masou Gakuen HxH / Hybrid x Heart Magias Academy Ataraxia( Фурукава Хироюки)[TV][10 из 12] [2016 г., приключения, комедия, этти, HDTVRip][Субтитры] Galfimbul 958192566914 MB 0 0 1473779139

18:05

13-Сен-16

PSP | Аниме ·· Магическая академия Атараксия: Гибрид x Сердце / Masou Gakuen HxH / Hybrid x Heart Magias Academy Ataraxia( Фурукава Хироюки)[TV][08 из 12] [2016 г., приключения, комедия, этти, HDTVRip][Субтитры] Galfimbul 766552874731 MB 0 0 1472652699

17:11

31-Авг-16

PSP | Аниме ·· Магическая академия Атараксия: Гибрид x Сердце / Masou Gakuen HxH / Hybrid x Heart Magias Academy Ataraxia( Фурукава Хироюки)[TV][06 из 12] [2016 г., приключения, комедия, этти, HDTVRip][Субтитры] Galfimbul 574960254548 MB 0 0 1471215516

01:58

15-Авг-16

PSP | Аниме ·· Магическая академия Атараксия: Гибрид x Сердце / Masou Gakuen HxH / Hybrid x Heart Magias Academy Ataraxia( Фурукава Хироюки)[TV][05 из 12] [2016 г., Фурукава Хироюки, HDTVRip][Субтитры] Galfimbul 479118319457 MB 0 0 1470584092

18:34

7-Авг-16

Зарубежные фильмы до 2016 ·· Гибрид / Super Hybrid (Эрик Валетт / Eric Valette) [2010, США, Германия, ужасы, фантастика, триллер, Blu-ray disc 1080p] MVO + Original Eng Galfimbul 1932146445117.99 GB 0 0 1467464205

15:56

2-Июл-16

Зарубежные фильмы до 2016 ·· Гибрид / Scintilla / The Hybrid (Билли О`Брайэн) [2014, Фантастика, WEB-DL 720p] Galfimbul 27669313672.58 GB 0 0 1425329594

23:53

2-Мар-15

3D Фильмы, кино ·· Гибрид 3Д / Super Hybrid 3D (Эрик Валетт / Eric Valette) [2010, США, Германия, ужасы, фантастика, триллер, DVD5 (Сжатый)] MVO [Anaglyph] анаглиф Galfimbul 40760422403.8 GB 0 0 1393513577

18:06

27-Фев-14

Зарубежные фильмы до 2016 ·· Гибрид / Super Hybrid (Эрик Валетт / Eric Valette) [2010, США, Германия, ужасы, фантастика, триллер, DVD5 (Сжатый)] MVO Galfimbul 43720048644.07 GB 0 0 1384893226

23:33

19-Ноя-13

Еще никто не оставлял запись к записи скачать торрент Гибриды Hybrids . Будь первым!

!Обратная связь