Скачать через торрент Идеальная жена Серии: 1-4 из 4 Фильм бесплатно в хорошем качестве torrent

Скачивайте на UnionPeer.org фильмы через торрент без регистрации. Новинки кино в хорошем качестве через торрент. На UnionPeer.org можно скачать через торрент фильмы 2014 и 2015 годов. Самые новые фильмы.

Скачать торрент Идеальная жена Серии: 1-4 из 4 бесплатно через .torrent фильм мультфильм сериал

Статистика раздачи
Размер:  2.25 GB   |    Зарегистрирован:  2 месяца 25 дней   |    .torrent скачан:  263 раза   |   
Раздают:  1  
   
загрузка...
 
Автор Сообщение

aleksan55

avatar aleksan55


Идеальная жена

Год выпуска: 2018
Страна: Россия | Кинокомпания «Эволюшн Пикчерс»
Жанр: мелодрама
Продолжительность: 00:47:00
Субтитры: нет
Режиссёр: Денис Елеонский

В ролях: Карина Разумовская, Эмилия Спивак, Наталья Высочанская, Мария Скуратова , Владимир Селезнёв , Владимир Колганов, Андрей Гульнев, Андрей Аверков, Хельга Филиппова, Борис Чистяков, Андрей Перович, Михаил Батуев, Евгений Карпов
Описание:
Светлана и Василий Самохваловы – завидная семейная пара, чьи лица не сходят с обложек журналов и выпусков новостей светской хроники. Он – народный депутат, она – активно занимается благотворительностью. Загоревшись идеей женской взаимопомощи, Светлана открывает «Клуб Идеальных Жен». Тренинги Клуба ведет Валерия Хрусталева, бывшая радиоведущая, а ныне образцовая жена, которая всю себя посвящает семье – мужу Андрею и дочери Марине. К ней присоединилась и давняя подруга Вика, мать-одиночка с двумя детьми. А провинциалку Галю на занятия в Клуб приводит жажда научиться строить отношения с мужчинами. Никто из четырех героинь не предполагал, какие тайные истории и страшные события всплывут на поверхность внешнего благополучия и привычного уклада жизни каждой из них. И к каким это приведет катастрофическим последствиям.

Качество: SATRip-AVC
Формат: MKV
Видео кодек: H.264
Аудио кодек: AC3
Видео: MPEG4 Video (H264), 720x400, 25fps,1500 Kbps,bit/pixel 0.208
Аудио : AC3 48000Hz, stereo, 192 kbps,2 ch
Общее
Уникальный идентификатор : 182038015231936408330794580803693008678 (0x88F33F17B0228A5D8EB0E7584B5F5726)
Полное имя : F:\Идеальная жена\01 серия_Идеальная жена_rip by_Aleksan55.mkv
Формат : Matroska
Версия формата : Version 2
Размер файла : 577 Мбайт
Продолжительность : 47 м. 38 с.
Общий поток : 1694 Кбит/сек
Дата кодирования : UTC 2018-08-22 19:05:23
Программа кодирования : mkvmerge v7.8.0 ('River Man') 32bit built on Apr 3 2015 12:11:22
Библиотека кодирования : libebml v1.3.1 + libmatroska v1.4.2

Видео
Идентификатор : 1
Формат : AVC
Формат/Информация : Advanced Video Codec
Профиль формата : High@L4.1
Параметр CABAC формата : Да
Параметр ReFrames формата : 14 кадров
Идентификатор кодека : V_MPEG4/ISO/AVC
Продолжительность : 47 м. 38 с.
Битрейт : 1500 Кбит/сек
Ширина : 720 пикселей
Высота : 400 пикселей
Соотношение сторон : 16:9
Режим частоты кадров : Постоянный
Частота кадров : 25,000 кадров/сек
Цветовое пространство : YUV
Субдискретизация насыщенности : 4:2:0
Битовая глубина : 8 бит
Тип развёртки : Прогрессивная
Бит/(Пиксели*Кадры) : 0.208
Размер потока : 500 Мбайт (87%)
Библиотека кодирования : x264 core 146 r2538 121396c
Настройки программы : cabac=1 / ref=14 / deblock=1:-1:-1 / analyse=0x3:0x133 / me=umh / subme=9 / psy=1 / psy_rd=0.90:0.00 / mixed_ref=0 / me_range=32 / chroma_me=1 / trellis=2 / 8x8dct=1 / cqm=0 / deadzone=21,11 / fast_pskip=1 / chroma_qp_offset=-2 / threads=12 / lookahead_threads=1 / sliced_threads=0 / nr=0 / decimate=0 / interlaced=0 / bluray_compat=0 / constrained_intra=0 / bframes=14 / b_pyramid=2 / b_adapt=1 / b_bias=0 / direct=3 / weightb=1 / open_gop=0 / weightp=2 / keyint=250 / keyint_min=25 / scenecut=40 / intra_refresh=0 / rc_lookahead=40 / rc=2pass / mbtree=1 / bitrate=1500 / ratetol=1.0 / qcomp=0.60 / qpmin=0 / qpmax=39 / qpstep=4 / cplxblur=20.0 / qblur=0.5 / ip_ratio=1.40 / aq=1:1.00
Default : Да
Forced : Нет
Цветовой диапазон : Limited
Основные цвета : BT.601 PAL
Характеристики трансфера : BT.470 System B, BT.470 System G
Коэффициенты матрицы : BT.601

Аудио
Идентификатор : 2
Формат : AC-3
Формат/Информация : Audio Coding 3
Расширение режима : CM (complete main)
Параметр Endianness формата : Big
Идентификатор кодека : A_AC3
Продолжительность : 47 м. 38 с.
Вид битрейта : Постоянный
Битрейт : 192 Кбит/сек
Каналы : 2 канала
Расположение каналов : Front: L R
Частота : 48,0 КГц
Частота кадров : 31,250 кадров/сек (1536 spf)
Битовая глубина : 16 бит
Метод сжатия : С потерями
Размер потока : 65,4 Мбайт (11%)
Default : Да
Forced : Нет :


Трекер:  [ 23-Авг-2018 11:06 ]

  

Скачать .torrent

Размер .torrent файла 12 KB


Размер: 2.25 GB
Хэш (hash) релиза: 7c3f3bc2b8188951969f378ff324cebf382b0a95
Подписка на обновления:

Еще никто не оставлял запись к записи скачать торрент Идеальная жена Серии: 1-4 из 4 . Будь первым!

!Обратная связь