Скачать через торрент Любовники The Affair Фильм бесплатно в хорошем качестве torrent

Скачивайте на UnionPeer.org фильмы через торрент без регистрации. Новинки кино в хорошем качестве через торрент. На UnionPeer.org можно скачать через торрент фильмы 2014 и 2015 годов. Самые новые фильмы.

Скачать торрент Любовники The Affair бесплатно через .torrent фильм мультфильм сериал

Статистика раздачи
Размер:  7.24 GB   |    Зарегистрирован:  3 месяца 16 дней   |    .torrent скачан:  73 раза   |   
Раздают:  1  
   
загрузка...
 
Автор Сообщение

Galfimbul

avatar Galfimbul


Любовники / The Affair


Год выпуска: 2018
Страна: США
Жанр: драма
Продолжительность: 00:57:26
Перевод:

Профессиональный многоголосый закадровый KANSAI
Режиссёр: Марк Майлод
В ролях: Мора Тирни (Helen Solloway), Доминик Уэст (Noah Solloway), Рут Уилсон (Alison Bailey), Джошуа Джексон (Cole Lockhart), Джулия Голден Теллес (Whitney Solloway), Джэдон Сэнд (Trevor Solloway), Джейк Ричард Сичильяно (Martin Solloway), Каталина Сандино Морено (Luisa Leon), Омар Метуолли (Dr. Vic Ullah), Лея Кэтлетт (Stacey Solloway), Джош Стэмберг (Max Cadman), Колин Доннелл (Scotty Lockhart)
Описание: История о Ное, женатом отце четверых детей, который после случайной встречи на пляже увлекается Эллисон, замужней женщиной, скорбящей о потере своего ребенка.


Ссылка на предыдущие и альтернативные раздачи

Качество: WEB-DL 1080p
Формат: MKV
Видео: AVC, 1920x1080 (16:9), 9185 kbps, 23,976 fps, 0,185 bpp
Аудио №1: русский / AC3 / 2.0 / 48 kHz / 192 kbps
Аудио №2: английский / E-AC3 / 5.1 / 48 kHz / 640 kbps
Субтитры: английские, английские (SDH)
Реклама: аудио, два раза в начале и в конце по 13 секунд
General
Unique ID : 230462687297308546046669989775684847203 (0xAD617FC1EFB48D9CB432BD10380EC663)
Complete name : G:\0_kansai\tor\The.Affair.S04.1080p.WEBDL-KANSAI\The.Affair.S04E01.1080p.WEBDL-KANSAI.mkv
Format : Matroska
Format version : Version 4 / Version 2
File size : 4.10 GiB
Duration : 57 min
Overall bit rate : 10.2 Mb/s
Encoded date : UTC 2018-07-31 15:04:09
Writing application : mkvmerge v6.7.0 ('Back to the Ground') 64bit built on Jan 8 2014 15:10:52
Writing library : libebml v1.3.0 + libmatroska v1.4.1

Video
ID : 1
Format : AVC
Format/Info : Advanced Video Codec
Format profile : High@L4
Format settings, CABAC : Yes
Format settings, ReFrames : 4 frames
Codec ID : V_MPEG4/ISO/AVC
Duration : 57 min
Bit rate : 9 186 kb/s
Width : 1 920 pixels
Height : 1 080 pixels
Display aspect ratio : 16:9
Frame rate mode : Constant
Frame rate : 23.976 (24000/1001) FPS
Color space : YUV
Chroma subsampling : 4:2:0
Bit depth : 8 bits
Scan type : Progressive
Bits/(Pixel*Frame) : 0.185
Stream size : 3.69 GiB (90%)
Default : Yes
Forced : No
Color range : Limited
Color primaries : BT.709
Transfer characteristics : BT.709
Matrix coefficients : BT.709

Audio #1
ID : 2
Format : AC-3
Format/Info : Audio Coding 3
Mode extension : CM (complete main)
Format settings, Endianness : Big
Codec ID : A_AC3
Duration : 57 min
Bit rate mode : Constant
Bit rate : 192 kb/s
Channel(s) : 2 channels
Channel positions : Front: L R
Sampling rate : 48.0 kHz
Frame rate : 31.250 FPS (1536 spf)
Compression mode : Lossy
Stream size : 78.9 MiB (2%)
Title : KANSAI Studio
Language : Russian
Default : Yes
Forced : No

Audio #2
ID : 3
Format : E-AC-3
Format/Info : Audio Coding 3
Format settings, Endianness : Big
Codec ID : A_EAC3
Duration : 57 min
Bit rate mode : Constant
Bit rate : 640 kb/s
Channel(s) : 6 channels
Channel positions : Front: L C R, Side: L R, LFE
Sampling rate : 48.0 kHz
Frame rate : 187.500 FPS (256 spf)
Compression mode : Lossy
Stream size : 263 MiB (6%)
Language : English
Default : No
Forced : No

Text #1
ID : 4
Format : UTF-8
Codec ID : S_TEXT/UTF8
Codec ID/Info : UTF-8 Plain Text
Language : English
Default : No
Forced : No

Text #2
ID : 5
Format : UTF-8
Codec ID : S_TEXT/UTF8
Codec ID/Info : UTF-8 Plain Text
Title : SDH
Language : English
Default : No
Forced : No
Внимание! Раздача ведётся путём добавления новых серий; при каждом добавлении создётся новый торрент. Чтобы начать докачку новой серии, пользователям необходимо сделать следующее:
Остановить скачивание.
Удалить старый торрент у себя из клиента (старые серии удалять не надо).
Скачать новый торрент и запустить его у себя в клиенте вместо старого, при этом указать клиенту путь в старую папку куда и должно происходить скачивание новых серий.
Ваш клиент при этом должен произвести хеширование (проверку) старой папки (если не производит сам - помогите ему сделать это), и будет докачивать только те серии которых у вас ещё нет. Старые серии при этом не удаляются, а продолжают раздаваться!
Eсли вы уже удалили старые серии, то предотвратить повторную закачку старых серий можно, отжав галочку в соответсвующих местах при запуске нового торрента. По возможности, желательно не удалять старые серии как можно дольше чтобы релизёр не столько продолжал раздавать старые серии, а смог сконцентрироваться на новых.



Трекер:  [ 01-Авг-2018 22:18 ]

  

Скачать .torrent

Размер .torrent файла 73 KB


Размер: 7.24 GB
Хэш (hash) релиза: a38bd636ce24dfc7e93bcce2c8ec643fcc87904f
Подписка на обновления:

Еще никто не оставлял запись к записи скачать торрент Любовники The Affair . Будь первым!

!Обратная связь