Скачать через торрент Пси Фактор: Хроники паранормальных явлений Psi Factor: Chronicles of the Paranormal Фильм бесплатно в хорошем качестве torrent

Скачивайте на UnionPeer.org фильмы через торрент без регистрации. Новинки кино в хорошем качестве через торрент. На UnionPeer.org можно скачать через торрент фильмы 2014 и 2015 годов. Самые новые фильмы.

Скачать торрент Пси Фактор: Хроники паранормальных явлений Psi Factor: Chronicles of the Paranormal бесплатно через .torrent фильм мультфильм сериал

Статистика раздачи
Размер:  19.12 GB   |    Зарегистрирован:  3 месяца 16 дней   |    .torrent скачан:  81 раз   |   
Раздают:  1  
   
загрузка...
 
Автор Сообщение

Galfimbul

avatar Galfimbul


Пси Фактор: Хроники паранормальных явлений / Psi Factor: Chronicles of the Paranormal

Год выпуска: 1997
Страна: Канада
Жанр: фантастика, фэнтези, триллер, драма, детектив
Продолжительность: ~ 00:45:00

Перевод: Профессиональный (многоголосый закадровый) AXN Sci Fi (с 9 серии и далее)
Перевод 2: Профессиональный (многоголосый закадровый) ТВ6 (VHSRip)
Перевод 3: Профессиональный (дублированный) РТР (серии 2-5)

Режиссёр: Кен Джиротти

В ролях: Нэнси Энн Сакович, Беркли Хоуп, Колин Фокс, Мэтт Фрюер, Дэн Эйкройд

Описание: Идея создания принадлежит Дэну Эйкройду - актеру, писателю, режиссеру и продюсеру, всю жизнь изучающему паранормальные явления. Любопытно, что авторы не замыкаются в рамках одного жанра, и на экране - гремучая смесь детектива, фантастики, приключений, боевиков и даже мелодрамы. "Пси фактор" - это драматическая антология реальных, ранее нигде не опубликованных историй обо всем необычном и необъяснимом.
Каждая серия - это одна отдельная история, наполненная всевозможными спецэффектами. Неотъемлемой частью сериала, конечно, является расследование, позволяющее найти объяснение этим явлениям. Иногда, правда, они так и остаются нераскрытыми…

Доп. информация: Исходный несжатый видеоряд взят с канадских DVD. Русский звук взят из релиза Novafilm, а так же пользователей Fikaloid и zlo2k.

Скачавшим просьба поддерживать раздачу если есть желание увидеть продолжение т. к. не смогу постоянно её поддерживать.

Розыскиваются собственные записи сериала с ТВ (транслирывался по AXN Sci-Fi, РТР, ТВ3, ТВ6 (с этой озвучкой повторялся по к. Петербург и ICTV), РТР, ТРК Украина) У кого сохранились просьба писать в личку.

Вниманию МОСКВИЧАМ, которым не безразличен сериал! Нужна небольшая помощь в передаче кассет с редкими переводами, подробнее в ЛС. Материальных вложений, кроме проезда по городу, не потребуется.

Сэмпл: http://multi-up.com/1205196

Качество: DVDRemux
Формат: MKV
Видео: MPG2 720x480 (4:3) 29.97fps 0.466 4829 Kbps
Аудио: Dolby AC3 48000Hz stereo 192 Kbps (для всех дорожек)
Субтитры: Отсутствуют

Реклама:
Отсутствует
Threads (Нити)
Donor (Донор)
Wish I May (Желаю уметь)
Communion (Общность)
Frozen in Time (Замороженные во времени)
Devolution (Инволюция)
The Warrior (Воин)
The Grey Men (Серые люди)
Man of War (Человек войны)
The Damned (Проклятый)
Hell Week (Адская неделя)

Ожидаются:
The Edge (Грань)
Bad Dreams (Плохие сны)
Kiss of the Tiger (Поцелуй тигра)
The Haunting (Преследование)
The Night of the Setting Sun (Ночь Восходящего солнца)
The Labyrinth (Лабиринт)
Pentimento (Скрытые детали)
Frozen Faith (Замороженная вера)
Map to the Stars (Карта звёзд)
The Endangered (Подвергающийся опасности)
The Egress (Выход)
General
Complete name : E:\Psi Factor S2 DVD-Remux\Psi Factor 2x04 [TB6.PTP.Eng].mkv
Format : Matroska
File size : 1.76 GiB
Duration : 45mn 41s
Overall bit rate : 5 515 Kbps
Writing application : AVI-Mux GUI 1.17.8.3, Feb 16 201019:42:50
Writing library : matroska muxer by Alexander Noe, build date Feb 16 2010

Video
ID : 1
Format : MPEG Video
Format version : Version 2
Format profile : Main@Main
Format settings, Matrix : Default
Codec ID : V_MPEG2
Codec ID/Info : MPEG 1 or 2 Video
Duration : 45mn 38s
Bit rate mode : Variable
Bit rate : 4 829 Kbps
Nominal bit rate : 9 800 Kbps
Width : 720 pixels
Height : 480 pixels
Display aspect ratio : 4:3
Frame rate : 29.970 fps
Standard : NTSC
Colorimetry : 4:2:0
Scan type : Interlaced
Scan order : Bottom Field First
Bits/(Pixel*Frame) : 0.466
Stream size : 1.54 GiB (87%)
Language : English

Audio #1
ID : 2
Format : AC-3
Format/Info : Audio Coding 3
Codec ID : A_AC3
Duration : 45mn 41s
Bit rate mode : Constant
Bit rate : 192 Kbps
Channel(s) : 2 channels
Channel positions : L R
Sampling rate : 48.0 KHz
Stream size : 62.7 MiB (3%)
Title : TB6
Language : Russian

Audio #2
ID : 3
Format : AC-3
Format/Info : Audio Coding 3
Codec ID : A_AC3
Duration : 45mn 41s
Bit rate mode : Constant
Bit rate : 192 Kbps
Channel(s) : 2 channels
Channel positions : L R
Sampling rate : 48.0 KHz
Stream size : 62.7 MiB (3%)
Title : PTP
Language : Russian

Audio #3
ID : 4
Format : AC-3
Format/Info : Audio Coding 3
Codec ID : A_AC3
Duration : 45mn 41s
Bit rate mode : Constant
Bit rate : 192 Kbps
Channel(s) : 2 channels
Channel positions : L R
Sampling rate : 48.0 KHz
Stream size : 62.7 MiB (3%)
Language : English / English / / English / /

Menu
00:00:00.000 : en:Chapter 01
00:03:55.268 : en:Chapter 02
00:04:06.980 : en:Chapter 03
00:43:44.355 : en:Chapter 04
00:44:10.447 : en:Chapter 05
Внимание! Раздача ведётся путём добавления новых серий; при каждом добавлении создаётся новый торрент. Чтобы начать докачку новой серии, пользователям необходимо сделать следующее:
(1) остановить скачивание,
(2) удалить старый торрент у себя из клиента (старые серии удалять не надо),
(3) скачать новый торрент и запустить его у себя в клиенте вместо старого, при этом указать клиенту путь в старую папку куда и должно происходить скачивание новых серий.

Ваш клиент при этом должен произвести хеширование (проверку) старой папки (если не производит сам - помогите ему сделать это), и будет докачивать только те серии которых у вас ещё нет. Старые серии при этом не удаляются, а продолжают раздаваться!

Eсли вы уже удалили старые серии, то предотвратить повторную закачку старых серий можно, отжав галочку в соответствующих местах при запуске нового торрента. По возможности, желательно не удалять старые серии как можно дольше чтобы релизёр не столько продолжал раздавать старые серии, а смог сконцентрироваться на новых.
Предыдущие и альтернативные раздачи

Трекер:  [ 01-Авг-2018 22:18 ]

  

Скачать .torrent

Размер .torrent файла 96 KB


Размер: 19.12 GB
Хэш (hash) релиза: 078198b0793397a0f9b3cc6384e64e37b00364bf
Подписка на обновления:

Еще никто не оставлял запись к записи скачать торрент Пси Фактор: Хроники паранормальных явлений Psi Factor: Chronicles of the Paranormal . Будь первым!

!Обратная связь