Скачать через торрент Спецотряд «Кобра» Alarm für Cobra 11 - Die Autobahnpolizei Фильм бесплатно в хорошем качестве torrent

Скачивайте на UnionPeer.org фильмы через торрент без регистрации. Новинки кино в хорошем качестве через торрент. На UnionPeer.org можно скачать через торрент фильмы 2014 и 2015 годов. Самые новые фильмы.

Скачать торрент Спецотряд «Кобра» Alarm für Cobra 11 - Die Autobahnpolizei бесплатно через .torrent фильм мультфильм сериал

Статистика раздачи
Размер:  3.44 GB   |    Зарегистрирован:  3 месяца 19 дней   |    .torrent скачан:  51 раз   |   
Раздают:  1  
   
загрузка...
 
Автор Сообщение

Galfimbul

avatar Galfimbul


Спецотряд «Кобра» | Alarm fur Cobra 11 - Die Autobahnpolizei

Год выпуска: 2018
Страна: Германия
Жанр: боевик, драма, криминал
Продолжительность: ~00:45:00

Перевод: Любительский (двухголосый закадровый) ViruseProject

Режиссёр: Александр Дирбах, Нико Цавельберг, Хайнц Диц, Франко Тоцца

В ролях: Эрдоган Аталай, Винценц Кифер, Катя Войвуд, Готфрид Воллмер, Катрин Хесс, Карина Визе, Нильс Курфин, Даниэла Вутте и др.

Описание: Там, где по улицам разгуливает преступность и случаются транспортные столкновения, начинает действовать спецотряд "Кобра 11". Эти ребята превосходно знают свое дело и являются серьезной угрозой для тех, кто решил переступить через рамки закона. Их работа - расследовать криминальные дорожные происшествия. Схватки с вооруженными угонщиками, контрабандистами, наркодилерами и прочими "плохими парнями", погони на сверхвысоких скоростях, аварии и столкновения - таковы суровые будни дорожной полиции. Главным героям не раз приходится спасать человеческие жизни и искать выход из, казалось бы, безнадежных ситуаций. А иногда нужно здорово постараться, чтобы взять верх в погоне. Бесстрашные парни уверены, что виновных настигнет наказание, ведь оружие, отвага и смекалка всегда готовы к бою. Патрульные машины полицейских отряда "Кобра 11" днем и ночью в любую погоду на посту. Именно они в ответе за безопасность всех, кто в пути!

Качество: BDRip
Формат: AVI
Видео: 720x400 (1.80:1), 25 fps, XviD build 67 ~1599 kbps avg, 0.22 bit/pixel
Аудио: 48 kHz, AC3 Dolby Digital, 2/0 (L,R) ch, ~192 kbps
Субтитры: нет

Реклама: Видеоролик Seasonvar в начале (10 сек)

General
Complete name : E:\Alarm.fuer.Cobra.11.S41E01.400p.ViruseProject.avi
Format : AVI
Format/Info : Audio Video Interleave
File size : 732 MiB
Duration : 47 min 19 s
Overall bit rate : 2 162 kb/s
Writing application : VirtualDubMod 1.5.10.2 (build 2540/release)
Writing library : VirtualDubMod build 2540/release

Video
ID : 0
Format : MPEG-4 Visual
Format profile : Advanced Simple@L5
Format settings, BVOP : 1
Format settings, QPel : No
Format settings, GMC : No warppoints
Format settings, Matrix : Default (MPEG)
Codec ID : XVID
Codec ID/Hint : XviD
Duration : 47 min 19 s
Bit rate : 1 764 kb/s
Width : 720 pixels
Height : 400 pixels
Display aspect ratio : 16:9
Frame rate : 25.000 FPS
Color space : YUV
Chroma subsampling : 4:2:0
Bit depth : 8 bits
Scan type : Progressive
Compression mode : Lossy
Bits/(Pixel*Frame) : 0.245
Stream size : 597 MiB (82%)
Writing library : XviD 1.2.1 (UTC 2008-12-04)

Audio #1
ID : 1
Format : AC-3
Format/Info : Audio Coding 3
Format settings, Endianness : Big
Codec ID : 2000
Duration : 47 min 19 s
Bit rate mode : Constant
Bit rate : 192 kb/s
Channel(s) : 2 channels
Channel positions : Front: L R
Sampling rate : 48.0 kHz
Frame rate : 31.250 FPS (1536 SPF)
Bit depth : 16 bits
Compression mode : Lossy
Stream size : 65.0 MiB (9%)
Alignment : Split accross interleaves
Interleave, duration : 40 ms (1.00 video frame)
Interleave, preload duratio : 500 ms
Service kind : Complete Main

Audio #2
ID : 2
Format : AC-3
Format/Info : Audio Coding 3
Format settings, Endianness : Big
Codec ID : 2000
Duration : 47 min 19 s
Bit rate mode : Constant
Bit rate : 192 kb/s
Channel(s) : 2 channels
Channel positions : Front: L R
Sampling rate : 48.0 kHz
Frame rate : 31.250 FPS (1536 SPF)
Bit depth : 16 bits
Compression mode : Lossy
Stream size : 65.0 MiB (9%)
Alignment : Split accross interleaves
Interleave, duration : 40 ms (1.00 video frame)
Interleave, preload duratio : 500 ms
Service kind : Complete Main
Предыдущие и альтернативные раздачи

Трекер:  [ 30-Июл-2018 09:18 ]

  

Скачать .torrent

Размер .torrent файла 18 KB


Размер: 3.44 GB
Хэш (hash) релиза: b75b817d91810b81425bb8e31e726d2d7a6615aa
Подписка на обновления:

Торренты, похожие на Спецотряд «Кобра» Alarm für Cobra 11 - Die Autobahnpolizei скачать торрент

Форум Название Автор Размер S L Добавлен
Зарубежные сериалы ·%· Спецотряд «Кобра» / Alarm für Cobra 11 - Die Autobahnpolizei / Сезон: 43 / Серии: 1-6 из 6 (Александр Дирбах, Нико Цавельберг, Хайнц Диц, Франко Тоцца) [2018, Германия, боевик, драма, криминал, BDRip 720p] DVO (ViruseProject) + Original + Rus Su Galfimbul 71537986956.66 GB 0 0 1532929961

08:52

30-Июл-18

Еще никто не оставлял запись к записи скачать торрент Спецотряд «Кобра» Alarm für Cobra 11 - Die Autobahnpolizei . Будь первым!

!Обратная связь