Скачать через торрент Оранжевый - хит сезона Orange Is the New Black Фильм бесплатно в хорошем качестве torrent

Скачивайте на UnionPeer.org фильмы через торрент без регистрации. Новинки кино в хорошем качестве через торрент. На UnionPeer.org можно скачать через торрент фильмы 2014 и 2015 годов. Самые новые фильмы.

Скачать торрент Оранжевый - хит сезона Orange Is the New Black бесплатно через .torrent фильм мультфильм сериал

Статистика раздачи
Размер:  709 MB   |    Зарегистрирован:  3 месяца 18 дней   |    .torrent скачан:  38 раз   |   
Раздают:  1  
   
загрузка...
 
Автор Сообщение

Galfimbul

avatar Galfimbul


Оранжевый - хит сезона | Orange Is the New Black
Год выпуска: 2017
Страна: США
Жанр: Драма, комедия, криминал
Продолжительность: ~00:55:00

Перевод: Любительский (многоголосый закадровый) ViruseProject

Режиссёр: Майкл Трим, Эндрю МакКарти, Мэттью Пенн

В ролях: Тейлор Шиллинг, Майкл Харни, Кейт Малгрю, Наташа Лионн, Узо Адуба, Даниэль Брукс, Даша Поланко, Самира Уайли, Селенис Лейва, Ник Сэндоу, Яэль Стоун, Тэрин Мэннинг.

Описание: Новый сезон — новая тюрьма, новые порядки. Ставки выше, схватки жёстче, система ещё неумолимее, сокамерницы ещё резче.
Пока-пока «Личфилд» — привет, совершенно незнакомый мир! Добро пожаловать в тюрьму строгого режима — это ваш новый дом.
История по мотивам книги Пайпер Керман о девушке, которая вынуждена мотать срок в тюрьме из-за своей непутёвой подружки-наркодилерши и никак не может удержаться от того, чтобы поучаствовать в общественной жизни.

Качество: WEBRip
Формат: AVI
Видео: 720x400 (1.80:1), 23.976 fps, XviD build 67 ~1599 kbps avg, 0.23 bit/pixel
Аудио 1: AC3, 48 kHz, 2 ch, 192 kbps
Субтитры: нет

Реклама: Видеоролик Seasonvar в начале (10 сек).

Внимание! Раздача ведётся путём добавления новых серий; при каждом добавлении создаётся новый торрент. Чтобы начать докачку новой серии, пользователям необходимо сделать следующее:
(1) остановить скачивание,
(2) удалить старый торрент у себя из клиента (старые серии удалять не надо),
(3) скачать новый торрент и запустить его у себя в клиенте вместо старого, при этом указать клиенту путь в старую папку куда и должно происходить скачивание новых серий.

Eсли вы уже удалили старые серии, то предотвратить повторную закачку старых серий можно, отжав галочку в соответствующих местах при запуске нового торрента. По возможности, желательно не удалять старые серии как можно дольше чтобы релизёр не столько продолжал раздавать старые серии, а смог сконцентрироваться на новых.
General
Complete name : E:\ОЗВУЧКА\777ЗАЛИВ777\Orange.Is.The.New.Black.S06.ViruseProject\Orange.Is.The.New.Black.S06.400p.ViruseProject\Orange.Is.The.New.Black.S06E01.400p.WEBRip.ViruseProject.avi
Format : AVI
Format/Info : Audio Video Interleave
File size : 709 MiB
Duration : 54 min 59 s
Overall bit rate : 1 801 kb/s
Writing application : VirtualDubMod 1.5.10.2 (build 2540/release)
Writing library : VirtualDubMod build 2540/release

Video
ID : 0
Format : MPEG-4 Visual
Format profile : Advanced Simple@L5
Format settings, BVOP : 2
Format settings, QPel : No
Format settings, GMC : No warppoints
Format settings, Matrix : Default (MPEG)
Codec ID : XVID
Codec ID/Hint : XviD
Duration : 54 min 59 s
Bit rate : 1 600 kb/s
Width : 720 pixels
Height : 400 pixels
Display aspect ratio : 16:9
Frame rate : 23.976 (24000/1001) FPS
Color space : YUV
Chroma subsampling : 4:2:0
Bit depth : 8 bits
Scan type : Progressive
Compression mode : Lossy
Bits/(Pixel*Frame) : 0.232
Stream size : 629 MiB (89%)
Writing library : XviD 67

Audio
ID : 1
Format : AC-3
Format/Info : Audio Coding 3
Format settings, Endianness : Big
Codec ID : 2000
Duration : 54 min 59 s
Bit rate mode : Constant
Bit rate : 192 kb/s
Channel(s) : 2 channels
Channel positions : Front: L R
Sampling rate : 48.0 kHz
Frame rate : 31.250 FPS (1536 spf)
Bit depth : 16 bits
Compression mode : Lossy
Stream size : 75.5 MiB (11%)
Alignment : Split accross interleaves
Interleave, duration : 42 ms (1.00 video frame)
Interleave, preload duration : 500 ms
Service kind : Complete Main
[b]Предыдущие и альтернативные раздачи

Трекер:  [ 30-Июл-2018 08:18 ]

  

Скачать .torrent

Размер .torrent файла 14 KB


Размер: 709 MB
Хэш (hash) релиза: c88fbf2bfa9f8d7d6e8483697efb2c58bcac7dba
Подписка на обновления:

Торренты, похожие на Оранжевый - хит сезона Orange Is the New Black скачать торрент

Форум Название Автор Размер S L Добавлен
Зарубежные сериалы ·%· Оранжевый - хит сезона /Orange Is the New Black / Сезон: 6 / Серии: 1-10 из 13 (Майкл Трим, Эндрю МакКарти, Мэттью Пенн) [2018, США, драма, комедия, криминал, WEBRip] DVO (Gears Media) + Original Galfimbul 75296290307.01 GB 0 0 1533192488

09:48

2-Авг-18

Зарубежные сериалы ·%· Оранжевый - хит сезона /Orange Is the New Black / Сезон: 6 / Серии: 1-10 из 13 (Майкл Трим, Эндрю МакКарти, Мэттью Пенн) [2018, США, драма, комедия, криминал, WEBRip 720p] DVO (Gears Media) + Original Galfimbul 3382050758731.5 GB 0 0 1533187101

08:18

2-Авг-18

Зарубежные сериалы ·%· Оранжевый - хит сезона / Orange Is the New Black / Сезон: 6 / Серии: 1 из 13 (Майкл Трим, Эндрю МакКарти, Мэттью Пенн) [2018, США, драма, комедия, криминал, WEBRip] MVO (ViruseProject) + Original + Subs (Rus, Eng, Esp, Fra, Pol, Por) Galfimbul 11973075961.12 GB 0 0 1532929970

08:52

30-Июл-18

Зарубежные сериалы ·· Оранжевый - хит сезона / Orange Is the New Black / Сезон: 5 / Серии: 1-6 из 13 (Майкл Трим, Эндрю МакКарти, Мэттью Пенн) [2017, драма, комедия, криминал, WEBRip 1080p] MVO (Jaskier) + Original Galfimbul 4455496734641.5 GB 0 0 1499117072

00:24

4-Июл-17

Зарубежные сериалы ·· Оранжевый - хит сезона / Orange Is the New Black / Сезон: 5 / Серии: 1-6 из 13 (Майкл Трим, Эндрю МакКарти, Мэттью Пенн) [2017, драма, комедия, криминал, WEBRip] MVO (Jaskier) + Original Galfimbul 41994874883.91 GB 0 0 1499116904

00:21

4-Июл-17

Зарубежные сериалы ·· Оранжевый - хит сезона /Orange Is the New Black / Сезон: 5 / Серии: 1-6 из 13 (Майкл Трим, Эндрю МакКарти, Мэттью Пенн) [2017, США, драма, комедия, криминал, WEB-DLRip] DVO (Gears Media) + Original Galfimbul 43863874284.09 GB 0 0 1497392687

01:24

14-Июн-17

Зарубежные сериалы ·· Оранжевый - хит сезона /Orange Is the New Black / Сезон: 5 / Серии: 1-6 из 13 (Майкл Трим, Эндрю МакКарти, Мэттью Пенн) [2017, США, драма, комедия, криминал, WEBRip 720p] DVO (Gears Media) + Original Galfimbul 1121095242610.44 GB 0 0 1497383683

22:54

13-Июн-17

Еще никто не оставлял запись к записи скачать торрент Оранжевый - хит сезона Orange Is the New Black . Будь первым!

!Обратная связь