Скачать через торрент ФАУДА FAUDA Фильм бесплатно в хорошем качестве torrent

Скачивайте на UnionPeer.org фильмы через торрент без регистрации. Новинки кино в хорошем качестве через торрент. На UnionPeer.org можно скачать через торрент фильмы 2014 и 2015 годов. Самые новые фильмы.

Скачать торрент ФАУДА FAUDA бесплатно через .torrent фильм мультфильм сериал

Статистика раздачи
Размер:  3.54 GB   |    Зарегистрирован:  3 месяца 20 дней   |    .torrent скачан:  47 раз   |   
Раздают:  1  
   
загрузка...
 
Автор Сообщение

Galfimbul

avatar Galfimbul


ФАУДА / FAUDA / פאודה

Год выпуска: 2017
Страна: Израиль
Жанр: драма
Продолжительность: 00:40:00

Перевод: Субтитры Netflix

Режиссёр: Ротем Шамир / Rotem Shamir
В ролях: Лиор Раз, Цахи Алеви, Нета Гарти, Юваль Сегаль, Рона Ли Шимон, Шади Мари, Латисия Айду, Хишам Сулейман

Описание: Драма о израильско-палестинском конфликте, который представлен на этот раз с двух сторон – еврейской и арабской, и настолько близко к реальности, насколько это возможно в кино.
В центре истории - бойцы секретного подразделения "мистаравим", действующие на территориях под маской "местных" во время охоты на террористов. Спецназовцы охотятся за террористом Хамедом, которому все время удается уходить от преследования. Израильские бойцы находятся в состоянии постоянного стресса, поскольку в любую секунду ситуация может выйти из-под контроля и превратится в "фауду" - хаос на вражеской территории. Цена ошибки высока. Но есть цель, ради которой бойцы идут на эту тяжелую мужскую работу..

Сэмпл: http://sendfile.su/1433280

Качество: WEB-DL 1080p
Контейнер: MKV
Видео: 1920x1080 (16:9) ~5965 kb/s, 25.000FPS, AVC
Аудио: Hebrew, 192 Kbps, 48.0 kHz, 6 channels, E-AC-3
Субтитры: русские отключаемые (SRT) [Netflix]
Реклама:
Нет
General
Format : Matroska
Format version : Version 4 / Version 2
File size : 2.02 GiB
Duration : 47mn 0s
Overall bit rate : 6 159 Kbps
Encoded date : UTC 2018-07-28 17:35:23
Writing application : mkvmerge v25.0.0 ('Prog Noir') 64-bit
Writing library : libebml v1.3.6 + libmatroska v1.4.9

Video
ID : 1
Format : AVC
Format/Info : Advanced Video Codec
Format profile : Main@L4
Format settings : CABAC / 3 Ref Frames
Format settings, CABAC : Yes
Format settings, ReFrames : 3 frames
Codec ID : V_MPEG4/ISO/AVC
Duration : 47mn 0s
Bit rate : 5 965 Kbps
Width : 1 920 pixels
Height : 1 080 pixels
Display aspect ratio : 16:9
Frame rate mode : Constant
Frame rate : 25.000 fps
Color space : YUV
Chroma subsampling : 4:2:0
Bit depth : 8 bits
Scan type : Progressive
Bits/(Pixel*Frame) : 0.115
Stream size : 1.96 GiB (97%)
Default : Yes
Forced : No

Audio
ID : 2
Format : E-AC-3
Format/Info : Enhanced Audio Coding 3
Codec ID : A_EAC3
Duration : 47mn 0s
Bit rate mode : Constant
Bit rate : 192 Kbps
Channel(s) : 6 channels
Channel positions : Front: L C R, Side: L R, LFE
Sampling rate : 48.0 KHz
Frame rate : 187.500 fps (256 SPF)
Compression mode : Lossy
Delay relative to video : -40ms
Stream size : 64.6 MiB (3%)
Title : Hebrew
Language : Hebrew
Service kind : Complete Main
Default : Yes
Forced : No

Text
ID : 3
Format : UTF-8
Codec ID : S_TEXT/UTF8
Codec ID/Info : UTF-8 Plain Text
Duration : 45mn 47s
Bit rate : 81 bps
Count of elements : 618
Stream size : 27.5 KiB (0%)
Title : Russian
Language : Russian
Default : Yes
Forced : Yes
Предыдущие и альтернативные раздачи

Добавляю серии по мере обработки! Пожалуйста помогайте с раздачей уже выложенных серий!

Трекер:  [ 28-Июл-2018 21:48 ]

  

Скачать .torrent

Размер .torrent файла 36 KB


Размер: 3.54 GB
Хэш (hash) релиза: 64ae9c3c38e2aa44dfb25ba8b8f2e5940b21bef5
Подписка на обновления:

Еще никто не оставлял запись к записи скачать торрент ФАУДА FAUDA . Будь первым!

!Обратная связь