Скачать через торрент По волчьим законам Animal Kingdom Фильм бесплатно в хорошем качестве torrent

Скачивайте на UnionPeer.org фильмы через торрент без регистрации. Новинки кино в хорошем качестве через торрент. На UnionPeer.org можно скачать через торрент фильмы 2014 и 2015 годов. Самые новые фильмы.

Скачать торрент По волчьим законам Animal Kingdom бесплатно через .torrent фильм мультфильм сериал

Статистика раздачи
Размер:  1.21 GB   |    Зарегистрирован:  5 месяцев 15 дней   |    .torrent скачан:  41 раз   |   
Раздают:  1  
   
загрузка...
 
Автор Сообщение

Galfimbul

avatar Galfimbul


По волчьим законам / Animal Kingdom
Год выпуска: 2018
Страна: США
Жанр: Драма, криминал
Продолжительность: ~ 00:45:00
Перевод: Профессиональный (многоголосый закадровый) | Jaskier
Режиссёр: Джон Уэллс
В ролях: Эллен Баркин, Девон Сава, Скотт Спидман, Бен Робсон, Даниэлла Алонсо, Шон Хэтоси, Райан Дорси, Анна Белкнап, Джейк Вири, Карен Малина Уайт
Описание: На создание сериала создателей вдохновил одноимённый австралийский фильм Дэвида Мишо 2010 года. Это история о том, как 17-летний Джошуа Коди после смерти матери переезжает к своей родне в пляжный городок в Южной Калифорнии. Глава семьи Джанин Коди руководит семейным делом. Главный её помощник — старший из братьев Коди по имени Поуп. Остальные сыновья тоже помогают матери по мере сил. Вскоре Джошуа понимает, что фамильный бизнес связан с криминалом и что теперь он волей-неволей сделался частью этого нового для него смертельно опасного мира.

Качество: WEBRip 720p
Формат: MKV
Видео: 1280x720 (16:9) | X264 | ~3028 kbps | 23.976 fps
Аудио 1: AC3, 48,0 КГц, 6 ch, 384 kbps - [RUS]
Аудио 2: AC3, 48,0 КГц, 6 ch, 384 kbps - [ENG]
Реклама: Присутствует звуковая (два раза в начале и конце по 10 сек.)
Ссылка на предыдущие и альтернативные раздачи
Переведено и озвучено: студией Jaskier
Общее
Уникальный идентификатор                 : 191600816558782069335813651990776052402 (0x9024F9997761A3E25D32814943FAFAB2)
Полное имя                               : F:\Jaskier\Animal.Kingdom Season 3 (WEBRip l 720p l Jaskier)\Animal.Kingdom.S03E01.WEBRip.720p.Jaskier.mkv
Формат                                   : Matroska
Версия формата                           : Version 4 / Version 2
Размер файла                             : 1,21 Гбайт
Продолжительность                        : 45 м. 47 с.
Общий поток                              : 3798 Кбит/сек
Дата кодирования                         : UTC 2018-06-02 05:41:00
Программа кодирования                    : mkvmerge v19.0.0 ('Brave Captain') 64-bit
Библиотека кодирования                   : libebml v1.3.5 + libmatroska v1.4.8

Видео
Идентификатор                            : 1
Формат                                   : AVC
Формат/Информация                        : Advanced Video Codec
Профиль формата                          : High@L3.1
Настройки формата                        : CABAC / 5 Ref Frames
Параметр CABAC формата                   : Да
Параметр RefFrames формата               : 5 кадров
Идентификатор кодека                     : V_MPEG4/ISO/AVC
Продолжительность                        : 45 м. 47 с.
Битрейт                                  : 3028 Кбит/сек
Ширина                                   : 1280 пикселей
Высота                                   : 720 пикселей
Соотношение сторон                       : 16:9
Режим частоты кадров                     : Постоянный
Частота кадров                           : 23,976 (24000/1001) кадра/сек
Цветовое пространство                    : YUV
Субдискретизация насыщенности            : 4:2:0
Битовая глубина                          : 8 бит
Тип развёртки                            : Прогрессивная
Бит/(Пиксели*Кадры)                      : 0.137
Размер потока                            : 992 Мбайт (80%)
Default                                  : Да
Forced                                   : Нет
Цветовой диапазон                        : Limited
Основные цвета                           : BT.709
Характеристики трансфера                 : BT.709
Коэффициенты матрицы                     : BT.709

Аудио #1
Идентификатор                            : 2
Формат                                   : AC-3
Формат/Информация                        : Audio Coding 3
Идентификатор кодека                     : A_AC3
Продолжительность                        : 45 м. 47 с.
Вид битрейта                             : Постоянный
Битрейт                                  : 384 Кбит/сек
Каналы                                   : 6 каналов
Расположение каналов                     : Front: L C R, Side: L R, LFE
Частота                                  : 48,0 КГц
Частота кадров                           : 31,250 кадров/сек (1536 SPF)
Битовая глубина                          : 16 бит
Метод сжатия                             : С потерями
Размер потока                            : 126 Мбайт (10%)
Заголовок                                : Jaskier
Язык                                     : Russian
ServiceKind/String                       : Complete Main
Default                                  : Да
Forced                                   : Нет

Аудио #2
Идентификатор                            : 3
Формат                                   : AC-3
Формат/Информация                        : Audio Coding 3
Идентификатор кодека                     : A_AC3
Продолжительность                        : 45 м. 47 с.
Вид битрейта                             : Постоянный
Битрейт                                  : 384 Кбит/сек
Каналы                                   : 6 каналов
Расположение каналов                     : Front: L C R, Side: L R, LFE
Частота                                  : 48,0 КГц
Частота кадров                           : 31,250 кадров/сек (1536 SPF)
Битовая глубина                          : 16 бит
Метод сжатия                             : С потерями
Размер потока                            : 126 Мбайт (10%)
Язык                                     : English
ServiceKind/String                       : Complete Main
Default                                  : Нет
Forced                                   : Нет
Когда раздача ведётся путём добавления новых серий, при каждом добавлении создётся новый торрент. Чтобы начать докачку новой серии, пользователям необходимо сделать следующее:
(1) остановить скачивание,
(2) удалить старый торрент у себя из клиента (старые серии удалять не надо),
(3) скачать новый торрент и запустить его у себя в клиенте вместо старого, при этом указать клиенту путь в старую папку, куда и должно происходить скачивание новых серий.
Ваш клиент при этом должен произвести хеширование (проверку) старой папки (если не производит сам - помогите ему сделать это), и будет докачивать только те серии, которых у вас ещё нет. Старые серии при этом не удаляются, а продолжают раздаваться!
Eсли вы уже удалили старые серии, то предотвратить повторную закачку старых серий можно, отжав галочку в соответсвующих местах при запуске нового торрента. По возможности, желательно не удалять старые серии как можно дольше, чтобы релизёр не столько продолжал раздавать старые серии, а смог сконцентрироваться на новых.


Трекер:  [ 02-Июн-2018 12:48 ]

  

Скачать .torrent

Размер .torrent файла 12 KB


Размер: 1.21 GB
Хэш (hash) релиза: 84c0d8fe9bf5e922a1b29c5259ee7714b238378d
Подписка на обновления:

Еще никто не оставлял запись к записи скачать торрент По волчьим законам Animal Kingdom . Будь первым!

!Обратная связь