Скачать через торрент музыку Rory Gallagher - Irish Tour 74 бесплатно без регистрации torrent

Статистика раздачи
Размер:  32.35 GB   |    Зарегистрирован:  7 лет 4 месяца   |    .torrent скачан:  59 раз   |   
Раздают:  1  
   
загрузка...
 
Автор Сообщение

Galfimbul

avatar Galfimbul


Rory Gallagher - Irish Tour '74
Жанр: Rock
Продолжительность: 01:24:11, 0:27:03 (Documentary)
Год выпуска: 2011
Описание: Фильм Тони Палмера об ирландском туре Рори Галлахера 1974 г., восстановленный и ремастированный с оригинальных пленок.

In 1974, award winning film maker Tony Palmer followed Rory Gallagher and his band on their tour of Ireland. The subsequent movie was released in cinemas to great critical acclaim and has gone on to be accepted as one of the great rock films. Now for the first time the film has been lovingly restored and remastered from the original footage and is being reissued on DVD and released for the first time on Blu-ray. There is a massive improvement in both sound and picture quality over the original DVD release and finally Gallagher fans can get to see the film as it was meant to be, capturing Rory, his music, the period and the place to perfection.
Треклист:


1. Walk On Hot Coals
2. Tattoo'd Lady
3. Who's That Comin'
4. A Million Miles Away
5. Going To My Home Town
6. Cradle Rock
7. As The Crow Flies
8. Hands Up
9. Bulfrog Blues

Качество: Blu-ray
Контейнер: BDMV
Видео кодек: H.264
Аудио кодек: DTS
Видео: MPEG-4 AVC Video / 27483 kbps / 1080i / 29,970 fps / 16:9 /
Аудио #1: DTS-HD Master Audio / 5.1 / 48 kHz / 4217 kbps / 24-bit (DTS Core: 5.1 / 48 kHz / 1509 kbps / 24-bit)
Аудио #2: Dolby Digital Audio / 5.1 / 48 kHz / 640 kbps /
Аудио #3: LPCM Audio / 2.0 / 48 kHz / 2304 kbps / 24-bit
Аудио #4: LPCM Audio / 2.0 / 48 kHz / 1536 kbps / 16-bit
Субтитры: French, German, Spanish (только на документальный фильм)
Disc Title: Rory.Gallagher.Irish.Tour.Blu-ray
Disc Size: 34 740 171 272 bytes
Protection: AACS
BD-Java: No
BDInfo: 0.5.6

Notes:

BDINFO HOME:
Cinema Squid
http://www.cinemasquid.com/blu-ray/tools/bdinfo

INCLUDES FORUMS REPORT FOR:
AVS Forum Blu-ray Audio and Video Specifications Thread
http://www.avsforum.com/avs-vb/showthread.php?t=1155731

********************
PLAYLIST: 00004.MPLS
********************

<--- BEGIN FORUMS PASTE --->

Код:

Total   Video
Title                                                           Codec   Length  Movie Size      Disc Size       Bitrate Bitrate Main Audio Track                          Secondary Audio Track
-----                                                           ------  ------- --------------  --------------  ------- ------- ------------------                        ---------------------
00004.MPLS                                                      AVC     1:24:11 24 230 916 096  34 740 171 272  38,37   27,48   DTS-HD Master 5.1 4217Kbps (48kHz/24-bit) DD AC3 5.1 640Kbps[/spoiler]
[code]DISC INFO:

Disc Title:     Rory.Gallagher.Irish.Tour.Blu-ray
Disc Size:      34 740 171 272 bytes
Protection:     AACS
BD-Java:        No
BDInfo:         0.5.6

PLAYLIST REPORT:

Name:                   00004.MPLS
Length:                 1:24:11 (h:m:s)
Size:                   24 230 916 096 bytes
Total Bitrate:          38,37 Mbps

VIDEO:

Codec                   Bitrate             Description
-----                   -------             -----------
MPEG-4 AVC Video        27483 kbps          1080i / 29,970 fps / 16:9 / High Profile 4.1

AUDIO:

Codec                           Language        Bitrate         Description
-----                           --------        -------         -----------
DTS-HD Master Audio             English         4217 kbps       5.1 / 48 kHz / 4217 kbps / 24-bit (DTS Core: 5.1 / 48 kHz / 1509 kbps / 24-bit)
Dolby Digital Audio             English         640 kbps        5.1 / 48 kHz / 640 kbps / DN -4dB
LPCM Audio                      English         2304 kbps       2.0 / 48 kHz / 2304 kbps / 24-bit
LPCM Audio                      English         1536 kbps       2.0 / 48 kHz / 1536 kbps / 16-bit

FILES:

Name            Time In         Length          Size            Total Bitrate
----            -------         ------          ----            -------------
00001.M2TS      0:00:00.000     1:24:11.880     24 230 916 096  38 371

CHAPTERS:

Number          Time In         Length          Avg Video Rate  Max 1-Sec Rate  Max 1-Sec Time  Max 5-Sec Rate  Max 5-Sec Time  Max 10Sec Rate  Max 10Sec Time  Avg Frame Size  Max Frame Size  Max Frame Time
------          -------         ------          --------------  --------------  --------------  --------------  --------------  --------------  --------------  --------------  --------------  --------------
1               0:00:00.000     0:15:16.982     27 627 kbps     34 827 kbps     00:04:48.921    32 381 kbps     00:00:50.250    31 805 kbps     00:00:46.613    115 222 bytes   454 125 bytes   00:00:38.304
2               0:15:16.982     0:06:28.287     27 255 kbps     34 513 kbps     00:20:13.111    31 469 kbps     00:16:24.450    30 419 kbps     00:18:45.357    113 676 bytes   405 915 bytes   00:17:28.747
3               0:21:45.270     0:08:42.755     27 424 kbps     35 069 kbps     00:26:08.133    31 231 kbps     00:22:00.852    30 284 kbps     00:21:56.281    114 381 bytes   410 752 bytes   00:22:09.961
4               0:30:28.026     0:07:31.984     27 746 kbps     34 724 kbps     00:32:14.232    32 036 kbps     00:33:22.533    31 097 kbps     00:33:22.300    115 723 bytes   433 565 bytes   00:33:22.700
5               0:38:00.011     0:08:01.247     27 995 kbps     35 384 kbps     00:39:32.336    31 673 kbps     00:38:53.264    30 399 kbps     00:39:37.975    116 762 bytes   420 433 bytes   00:39:42.680
6               0:46:01.258     0:11:46.205     28 306 kbps     35 679 kbps     00:46:57.614    30 746 kbps     00:52:40.490    29 899 kbps     00:52:41.758    118 058 bytes   422 520 bytes   00:52:43.160
7               0:57:47.464     0:04:31.904     28 270 kbps     34 060 kbps     01:01:01.624    31 263 kbps     01:01:00.857    29 986 kbps     01:01:58.381    117 909 bytes   390 255 bytes   01:01:40.596
8               1:02:19.368     0:12:57.610     27 877 kbps     37 108 kbps     01:04:04.407    31 380 kbps     01:11:15.838    30 313 kbps     01:11:15.404    116 272 bytes   415 102 bytes   01:04:05.341
9               1:15:16.979     0:08:54.901     24 714 kbps     33 864 kbps     01:20:51.446    30 668 kbps     01:16:48.470    30 179 kbps     01:16:42.998    103 084 bytes   423 879 bytes   01:23:26.334

STREAM DIAGNOSTICS:

File            PID             Type            Codec           Language                Seconds                 Bitrate                 Bytes           Packets
----            ---             ----            -----           --------                --------------          --------------          -------------   -----
00001.M2TS      4113 (0x1011)   0x1B            AVC                                     5051,780                27 483                  17 354 820 452  94 408 389
00001.M2TS      4352 (0x1100)   0x80            LPCM            eng (English)           5051,780                2 291                   1 446 888 000   8 016 000
00001.M2TS      4353 (0x1101)   0x81            AC3             eng (English)           5051,780                635                     400 798 720     2 348 430
00001.M2TS      4354 (0x1102)   0x86            DTS-HD MA       eng (English)           5051,780                4 217                   2 662 919 660   15 253 614
00001.M2TS      4355 (0x1103)   0x80            LPCM            eng (English)           5051,780                1 528                   965 126 916     6 007 014[/code]
<---- END FORUMS PASTE ---->

QUICK SUMMARY:

Disc Title: Rory.Gallagher.Irish.Tour.Blu-ray
Disc Size: 34 740 171 272 bytes
Protection: AACS
BD-Java: No
Playlist: 00004.MPLS
Size: 24 230 916 096 bytes
Length: 1:24:11
Total Bitrate: 38,37 Mbps
Video: MPEG-4 AVC Video / 27483 kbps / 1080i / 29,970 fps / 16:9 / High Profile 4.1
Audio: English / DTS-HD Master Audio / 5.1 / 48 kHz / 4217 kbps / 24-bit (DTS Core: 5.1 / 48 kHz / 1509 kbps / 24-bit)
Audio: English / Dolby Digital Audio / 5.1 / 48 kHz / 640 kbps / DN -4dB
Audio: English / LPCM Audio / 2.0 / 48 kHz / 2304 kbps / 24-bit
Audio: English / LPCM Audio / 2.0 / 48 kHz / 1536 kbps / 16-bit

********************
PLAYLIST: 00005.MPLS
********************

<--- BEGIN FORUMS PASTE --->
[code]Total   Video
Title                                                           Codec   Length  Movie Size      Disc Size       Bitrate Bitrate Main Audio Track                          Secondary Audio Track
-----                                                           ------  ------- --------------  --------------  ------- ------- ------------------                        ---------------------
00005.MPLS                                                      AVC     0:27:03 6 759 929 856   34 740 171 272  33,30   30,00   LPCM 2.0 1536Kbps (48kHz/16-bit)[/code]
[code]DISC INFO:

Disc Title:     Rory.Gallagher.Irish.Tour.Blu-ray
Disc Size:      34 740 171 272 bytes
Protection:     AACS
BD-Java:        No
BDInfo:         0.5.6

PLAYLIST REPORT:

Name:                   00005.MPLS
Length:                 0:27:03 (h:m:s)
Size:                   6 759 929 856 bytes
Total Bitrate:          33,30 Mbps

VIDEO:

Codec                   Bitrate             Description
-----                   -------             -----------
MPEG-4 AVC Video        29996 kbps          1080i / 29,970 fps / 16:9 / High Profile 4.1

AUDIO:

Codec                           Language        Bitrate         Description
-----                           --------        -------         -----------
LPCM Audio                      English         1536 kbps       2.0 / 48 kHz / 1536 kbps / 16-bit

SUBTITLES:

Codec                           Language        Bitrate         Description
-----                           --------        -------         -----------
Presentation Graphics           English         18,285 kbps
Presentation Graphics           French          17,102 kbps
Presentation Graphics           German          19,987 kbps
Presentation Graphics           Spanish         17,394 kbps

FILES:

Name            Time In         Length          Size            Total Bitrate
----            -------         ------          ----            -------------
00002.M2TS      0:00:00.000     0:27:03.989     6 759 929 856   33 300

CHAPTERS:

Number          Time In         Length          Avg Video Rate  Max 1-Sec Rate  Max 1-Sec Time  Max 5-Sec Rate  Max 5-Sec Time  Max 10Sec Rate  Max 10Sec Time  Avg Frame Size  Max Frame Size  Max Frame Time
------          -------         ------          --------------  --------------  --------------  --------------  --------------  --------------  --------------  --------------  --------------  --------------
1               0:00:00.000     0:07:26.979     30 322 kbps     46 142 kbps     00:05:42.975    42 044 kbps     00:05:41.407    39 191 kbps     00:05:38.004    126 458 bytes   475 338 bytes   00:05:43.976
2               0:07:26.979     0:08:25.171     29 379 kbps     42 387 kbps     00:07:46.466    39 289 kbps     00:07:46.365    38 350 kbps     00:07:42.528    122 536 bytes   401 724 bytes   00:07:58.010
3               0:15:52.151     0:03:01.881     31 262 kbps     43 760 kbps     00:17:42.494    40 322 kbps     00:17:40.926    39 551 kbps     00:17:35.954    130 389 bytes   409 659 bytes   00:17:43.462
4               0:18:54.032     0:08:09.956     29 863 kbps     42 963 kbps     00:24:48.620    40 122 kbps     00:24:47.219    37 956 kbps     00:20:31.897    124 562 bytes   412 555 bytes   00:20:38.770

STREAM DIAGNOSTICS:

File            PID             Type            Codec           Language                Seconds                 Bitrate                 Bytes           Packets
----            ---             ----            -----           --------                --------------          --------------          -------------   -----
00002.M2TS      4113 (0x1011)   0x1B            AVC                                     1623,856                29 998                  6 089 049 990   33 121 385
00002.M2TS      4352 (0x1100)   0x80            LPCM            eng (English)           1623,856                1 543                   313 131 300     1 948 950
00002.M2TS      4608 (0x1200)   0x90            PGS             eng (English)           1623,856                18                      3 711 755       20 900
00002.M2TS      4609 (0x1201)   0x90            PGS             deu (German)            1623,856                20                      4 057 345       22 786
00002.M2TS      4610 (0x1202)   0x90            PGS             spa (Spanish)           1623,856                17                      3 530 873       19 925
00002.M2TS      4611 (0x1203)   0x90            PGS             fra (French)            1623,856                17                      3 471 784       19 602[/code]
<---- END FORUMS PASTE ---->

QUICK SUMMARY:

Disc Title: Rory.Gallagher.Irish.Tour.Blu-ray
Disc Size: 34 740 171 272 bytes
Protection: AACS
BD-Java: No
Playlist: 00005.MPLS
Size: 6 759 929 856 bytes
Length: 0:27:03
Total Bitrate: 33,30 Mbps
Video: MPEG-4 AVC Video / 29996 kbps / 1080i / 29,970 fps / 16:9 / High Profile 4.1
Audio: English / LPCM Audio / 2.0 / 48 kHz / 1536 kbps / 16-bit
Subtitle: English / 18,285 kbps
Subtitle: French / 17,102 kbps
Subtitle: German / 19,987 kbps
Subtitle: Spanish / 17,394 kbps

********************
PLAYLIST: 00006.MPLS
********************

<--- BEGIN FORUMS PASTE --->
[code]Total   Video
Title                                                           Codec   Length  Movie Size      Disc Size       Bitrate Bitrate Main Audio Track                          Secondary Audio Track
-----                                                           ------  ------- --------------  --------------  ------- ------- ------------------                        ---------------------
00006.MPLS                                                      AVC     0:11:33 3 238 465 536   34 740 171 272  37,33   27,51   DTS-HD Master 5.1 4966Kbps (48kHz/24-bit) DD AC3 5.1 640Kbps[/code]
[code]DISC INFO:

Disc Title:     Rory.Gallagher.Irish.Tour.Blu-ray
Disc Size:      34 740 171 272 bytes
Protection:     AACS
BD-Java:        No
BDInfo:         0.5.6

PLAYLIST REPORT:

Name:                   00006.MPLS
Length:                 0:11:33 (h:m:s)
Size:                   3 238 465 536 bytes
Total Bitrate:          37,33 Mbps

VIDEO:

Codec                   Bitrate             Description
-----                   -------             -----------
MPEG-4 AVC Video        27512 kbps          1080i / 29,970 fps / 16:9 / High Profile 4.1

AUDIO:

Codec                           Language        Bitrate         Description
-----                           --------        -------         -----------
DTS-HD Master Audio             English         4966 kbps       5.1 / 48 kHz / 4966 kbps / 24-bit (DTS Core: 5.1 / 48 kHz / 1509 kbps / 24-bit)
Dolby Digital Audio             English         640 kbps        5.1 / 48 kHz / 640 kbps / DN -4dB
LPCM Audio                      English         2304 kbps       2.0 / 48 kHz / 2304 kbps / 24-bit

FILES:

Name            Time In         Length          Size            Total Bitrate
----            -------         ------          ----            -------------
00003.M2TS      0:00:00.000     0:11:33.993     3 238 465 536   37 331

CHAPTERS:

Number          Time In         Length          Avg Video Rate  Max 1-Sec Rate  Max 1-Sec Time  Max 5-Sec Rate  Max 5-Sec Time  Max 10Sec Rate  Max 10Sec Time  Avg Frame Size  Max Frame Size  Max Frame Time
------          -------         ------          --------------  --------------  --------------  --------------  --------------  --------------  --------------  --------------  --------------  --------------
1               0:00:00.000     0:11:33.993     27 512 kbps     38 708 kbps     00:02:46.132    34 405 kbps     00:00:21.321    33 815 kbps     00:00:15.115    114 748 bytes   557 002 bytes   00:02:46.232

STREAM DIAGNOSTICS:

File            PID             Type            Codec           Language                Seconds                 Bitrate                 Bytes           Packets
----            ---             ----            -----           --------                --------------          --------------          -------------   -----
00003.M2TS      4113 (0x1011)   0x1B            AVC                                     693,927                 27 515                  2 386 652 038   12 983 113
00003.M2TS      4352 (0x1100)   0x80            LPCM            eng (English)           693,927                 2 274                   197 215 744     1 092 608
00003.M2TS      4353 (0x1101)   0x81            AC3             eng (English)           693,927                 630                     54 630 400      320 100
00003.M2TS      4354 (0x1102)   0x86            DTS-HD MA       eng (English)           693,927                 4 967                   430 823 940     2 447 925[/code]
<---- END FORUMS PASTE ---->

QUICK SUMMARY:

Disc Title: Rory.Gallagher.Irish.Tour.Blu-ray
Disc Size: 34 740 171 272 bytes
Protection: AACS
BD-Java: No
Playlist: 00006.MPLS
Size: 3 238 465 536 bytes
Length: 0:11:33
Total Bitrate: 37,33 Mbps
Video: MPEG-4 AVC Video / 27512 kbps / 1080i / 29,970 fps / 16:9 / High Profile 4.1
Audio: English / DTS-HD Master Audio / 5.1 / 48 kHz / 4966 kbps / 24-bit (DTS Core: 5.1 / 48 kHz / 1509 kbps / 24-bit)
Audio: English / Dolby Digital Audio / 5.1 / 48 kHz / 640 kbps / DN -4dB
Audio: English / LPCM Audio / 2.0 / 48 kHz / 2304 kbps / 24-bit

********************
PLAYLIST: 00008.MPLS
********************

<--- BEGIN FORUMS PASTE --->
[code]Total   Video
Title                                                           Codec   Length  Movie Size      Disc Size       Bitrate Bitrate Main Audio Track                          Secondary Audio Track
-----                                                           ------  ------- --------------  --------------  ------- ------- ------------------                        ---------------------
00008.MPLS                                                      AVC     0:00:20 6 912 000       34 740 171 272  2,76    2,56[/code]
[code]DISC INFO:

Disc Title:     Rory.Gallagher.Irish.Tour.Blu-ray
Disc Size:      34 740 171 272 bytes
Protection:     AACS
BD-Java:        No
BDInfo:         0.5.6

PLAYLIST REPORT:

Name:                   00008.MPLS
Length:                 0:00:20 (h:m:s)
Size:                   6 912 000 bytes
Total Bitrate:          2,76 Mbps

VIDEO:

Codec                   Bitrate             Description
-----                   -------             -----------
MPEG-4 AVC Video        2564 kbps           1080i / 29,970 fps / 16:9 / High Profile 4.1

FILES:

Name            Time In         Length          Size            Total Bitrate
----            -------         ------          ----            -------------
00010.M2TS      0:00:00.000     0:00:10.009     3 723 264       2 976
00011.M2TS      0:00:10.009     0:00:10.009     3 188 736       2 548

CHAPTERS:

Number          Time In         Length          Avg Video Rate  Max 1-Sec Rate  Max 1-Sec Time  Max 5-Sec Rate  Max 5-Sec Time  Max 10Sec Rate  Max 10Sec Time  Avg Frame Size  Max Frame Size  Max Frame Time
------          -------         ------          --------------  --------------  --------------  --------------  --------------  --------------  --------------  --------------  --------------  --------------
1               0:00:00.000     0:00:20.019     2 564 kbps      3 613 kbps      00:00:00.200    2 961 kbps      00:00:01.000    2 752 kbps      00:00:00.333    10 693 bytes    198 113 bytes   00:00:08.408

STREAM DIAGNOSTICS:

File            PID             Type            Codec           Language                Seconds                 Bitrate                 Bytes           Packets
----            ---             ----            -----           --------                --------------          --------------          -------------   -----
00010.M2TS      4113 (0x1011)   0x1B            AVC                                     9,910                   2 792                   3 458 488       19 033
00011.M2TS      4113 (0x1011)   0x1B            AVC                                     9,910                   2 387                   2 957 174       16 266[/code]
<---- END FORUMS PASTE ---->

QUICK SUMMARY:

Disc Title: Rory.Gallagher.Irish.Tour.Blu-ray
Disc Size: 34 740 171 272 bytes
Protection: AACS
BD-Java: No
Playlist: 00008.MPLS
Size: 6 912 000 bytes
Length: 0:00:20
Total Bitrate: 2,76 Mbps
Video: MPEG-4 AVC Video / 2564 kbps / 1080i / 29,970 fps / 16:9 / High Profile 4.1


Трекер:  [ 29-Июл-2011 00:04 ]

  

Скачать .torrent

Размер .torrent файла 44 KB


Размер: 32.35 GB
Хэш (hash) релиза: 1eddc3db47de6834a315fc581bd56abef4d98a25

Еще никто не оставлял запись к записи скачать торрент Rory Gallagher - Irish Tour 74 . Будь первым!

!Обратная связь