Скачать через торрент музыку Earth, Wind & Fire: Live At Montreux бесплатно без регистрации torrent

Статистика раздачи
Размер:  21.03 GB   |    Зарегистрирован:  7 лет 4 месяца   |    .torrent скачан:  84 раза   |   
Раздают:  1  
   
загрузка...
 
Автор Сообщение

Galfimbul

avatar Galfimbul


EARTH, WIND & FIRE:
Live At Montreux 1997
Год выпуска: 1997
Жанр: Jazz, Funk, R&B, Soul
Продолжительность: 01:30:15


Earth,Wind & Fire were in typically exuberant form when they paid their first visit to the Montreux Jazz Festival in 1997. They delivered a sparkling performance featuring a string of classic hits including Saturday Nite, September, Let's Grove, Fantasy, Devotion, After The Love Has Gone, Shining Star, Can't Hide Love and Boogie Wonderland. As a bonus, included here are seven additional tracks from the band's equally fine return performance in 1998.




Выпущено: США, Eagle Rock Entertainment
Качество: Blu-ray, BD-25 Single-Layer Disc
Формат: M2TS
Видео: AVC, MPEG-4, 1920x1080 pixels, 29.970 fps, ~19.0 Mbps
Аудио: 1.English DTS-HD MA 5.1 (48 kHz / 5294 kbps / 24-bit) 2.English Dolby Digital 5.1 (448 kbps) 3.English LPCM 2.0 (48 kHz / 2304 kbps / 24-bit)
Supplements: Bonus Tracks


Maurice White - вокал, ударные, перкуссия
Philip Bailey - вокал, перкуссия
Verdine White - бас
Ralph Johnson - вокал, ударные, перкуссия
Robert Brookins - клавишные
Myron McKinley - клавишные
Bobby Gonzales - гитара
Danny Reyes - перкуссия
B. David Whitworth - вокал, перкуссия
John Paris - ударные
Ray Brown - труба, флигельгорн
Reggie Young - тромбон
Gary Bias - саксофон
Toyona Holloway - бэк-вокал
Музыка "Earth, Wind And Fire" вобрала в себя множество стилей – соул, фанк, ритм-энд-блюз, поп, госпел, джаз и африканские ритмы. Коллектив был образован по инициативе барабанщика Мориса Уайта (р. 19 декабря 1941), работавшего до этого в "Ramsey Lewis Trio" и "Salty Peppers". Компанию музыканту изначально составили Шерри Скотт (вокал), Филлард Уильямс (перкуссия), Вердайн Уайт (р. 25 июля 1951; бас), Майкл Бил (гитара), Честер Вашингтон (саксофон), Лесли Дрэйтон (труба), Алекс Томас (тромбон, аранжировки) и Уэйд Флемонс (клавишные, вокал). Первые два альбома "Earth, Wind And Fire" вызвали бурные восторги критиков, а сингл "I Think About Lovin' You" угодил в Топ 40 ритм-энд-блюзовых чартов. Впрочем, успех не способствовал единству коллектива, и группа быстро распалась.

К следующему диску команда пришла в несколько видоизмененном составе: вместо Лоса и Батисты появились саксофонист Эндрю Вулфолк и гитаристы Эл МакКэй и Джонни Грэм. Альбом "Head To The Sky" сопровождался двумя хит-синглами, "Evil" и "Keep Your Head To The Sky", но более значимый успех был еще впереди. Записанный уже без Джессики диск "Open Our Eyes" принес коллективу первую платину, а в 1975-м "EMF" вознеслись на самую вершину национальных поп-чартов с песней "Shining Star" с альбома "That's The Way Of The World". Лейбл почувствовал запах больших денег и в срочном порядке потребовал от музыкантов еще одну пластинку. Несмотря на спешку работа над "Gratitude" завершилась удачно, и этот альбом стал дважды платиновым, что для "черной" группы являлось очень большим достижением. Кстати, к тому времени Джонсон переключился на вокал, а перкуссия перешла к третьему братцу-Уайту, Фреду.

Вторая половина 70-х для "Earth, Wind And Fire" была отмечена еще тремя успешными альбомами: "Spirit", "All 'N All" и "I Am". Концерты "EMF" того времени обставлялись с большим размахом: пиротехнические и лазерные эффекты, летающие пирамиды и парящие в воздухе гитаристы. В 1979-м группа с аншлагами гастролировала по Европе и Японии, а ее дэнс-шлягер "Boogie Wonderland" занимал первые строчки в хит-парадах многих стран. В дальнейшем дела коллектива пошли на спад и следующая работа, "Faces", достигла всего лишь золотой отметки. После этого альбома группу покинул МакКэй, а на его место вернулся Батиста, добавивший в саунд жесткости.

Следующие две полнометражки сопровождались несколькими хит-синглами, в том числе и грэмминосным "I Wanna Be With You". Однако вышедший в 1983-м диск "Electric Universe" оказался настолько неудачным, что проект на целых четыре года вошел в ступор. Только в 1987-м фирме "Columbia" удалось уговорить Мориса Уайта и Филипа Бэйли реанимировать "Earth, Wind And Fire". Реюнион состоялся при участии нового гитариста Шелдона Рейнольдса, а альбом "Touch The World" дал группе два хита, "System Of Survival" и "Thinking Of You" (оба присутствовали как в дэнс-, так и в ритм-энд-блюзовых чартах). В 1988-м группа выпустила сборник "The Best of Earth, Wind & Fire Vol II", а в 1990-м вышел последний на "Columbia" альбом, "Heritage".

На протяжении 90-х "Earth, Wind And Fire" выпустили еще только два студийных альбома, поскольку сказывался возраст музыкантов и состояние их здоровья. Тем не менее, благодарная публика не забывала своих героев. В 1995-м на голливудской Аллее Славы была заложена звезда "EWF", а в 2000 году коллектив был введен в Зал Славы Рок-н-Ролла. В начале нового тысячелетия Морис Уайт на своем лейбле "Kalimba Records" выпустил пару альбомов своей группы: "Live In Rio" (концертные записи 1980 года) и первый за шесть лет студийник "The Promise". В 2005-м вышла очередная работа, "Illumination", которая принесла группе несколько номинаций на "Grammy" в различных категориях.
</span>
[i]1. Introduction by Claude Nobs
2. Rock That
3. Jupiter
4. Saturday Night
5. Revolution
6. Gratitude
7. September
8. Let's Goove
9. Rock It
10. Sun Goddess
11. Can't Hide Love
12. That's The Way Of The World
13. Drums Solo
14. Reasons
15. Fantasy
16. Mo's Solo
17. Boogie Wonderland
18. After The Love Has Gone
19. Sing A Song
20. Shining Star
21. Devotion
Bonus track:
22. Kalimba Funk Intro
23. Medley: Pride / Mighty Mighty
24. In The Stone
25. Solo Percussion
26. I'll Write A Song
27. Love's Holiday
28. Getaway
Disc Title:
Disc Size: 22 581 098 636 bytes
Protection: AACS
BD-Java: No
BDInfo: 0.5.3

Notes:

BDINFO HOME:
Cinema Squid
http://www.cinemasquid.com/blu-ray/tools/bdinfo

INCLUDES FORUMS REPORT FOR:
AVS Forum Blu-ray Audio and Video Specifications Thread
http://www.avsforum.com/avs-vb/showthread.php?t=1155731

********************
PLAYLIST: 00000.MPLS
********************

<--- BEGIN FORUMS PASTE --->

Код:

Total   Video
Title                                                           Codec   Length  Movie Size      Disc Size       Bitrate Bitrate Main Audio Track                          Secondary Audio Track
-----                                                           ------  ------- --------------  --------------  ------- ------- ------------------                        ---------------------
00000.MPLS                                                      AVC     1:30:15 19 380 989 952  22 581 098 636  28,63   19,03   DTS-HD Master 5.1 5294Kbps (48kHz/24-bit) DD AC3 5.1 448Kbps[/spoiler]
[code]DISC INFO:

Disc Title:
Disc Size:      22 581 098 636 bytes
Protection:     AACS
BD-Java:        No
BDInfo:         0.5.3

PLAYLIST REPORT:

Name:                   00000.MPLS
Length:                 1:30:15 (h:m:s)
Size:                   19 380 989 952 bytes
Total Bitrate:          28,63 Mbps

VIDEO:

Codec                   Bitrate             Description
-----                   -------             -----------
MPEG-4 AVC Video        19030 kbps          1080i / 29,970 fps / 16:9 / High Profile 4.1

AUDIO:

Codec                           Language        Bitrate         Description
-----                           --------        -------         -----------
DTS-HD Master Audio             English         5294 kbps       5.1 / 48 kHz / 5294 kbps / 24-bit (DTS Core: 5.1 / 48 kHz / 1509 kbps / 24-bit)
Dolby Digital Audio             English         448 kbps        5.1 / 48 kHz / 448 kbps / DN -4dB
LPCM Audio                      English         2304 kbps       2.0 / 48 kHz / 2304 kbps / 24-bit

FILES:

Name            Time In         Length          Size            Total Bitrate
----            -------         ------          ----            -------------
00001.M2TS      0:00:00.000     1:30:15.343     19 380 989 952  28 631

CHAPTERS:

Number          Time In         Length          Avg Video Rate  Max 1-Sec Rate  Max 1-Sec Time  Max 5-Sec Rate  Max 5-Sec Time  Max 10Sec Rate  Max 10Sec Time  Avg Frame Size  Max Frame Size  Max Frame Time
------          -------         ------          --------------  --------------  --------------  --------------  --------------  --------------  --------------  --------------  --------------  --------------
1               0:00:00.000     0:00:34.634     5 229 kbps      11 400 kbps     00:00:31.231    10 003 kbps     00:00:20.820    9 148 kbps      00:00:17.784    21 790 bytes    169 570 bytes   00:00:19.419
2               0:00:34.634     0:00:54.621     19 116 kbps     28 572 kbps     00:01:11.504    23 543 kbps     00:01:10.703    21 970 kbps     00:01:08.368    79 730 bytes    256 683 bytes   00:00:55.622
3               0:01:29.255     0:02:18.371     21 596 kbps     30 887 kbps     00:03:15.628    26 383 kbps     00:03:15.361    25 990 kbps     00:03:15.361    90 073 bytes    263 994 bytes   00:02:55.074
4               0:03:47.627     0:01:57.050     20 608 kbps     27 422 kbps     00:05:38.771    25 019 kbps     00:05:37.036    23 020 kbps     00:04:09.315    85 952 bytes    267 698 bytes   00:03:55.468
5               0:05:44.677     0:03:09.556     19 683 kbps     29 939 kbps     00:06:10.503    25 724 kbps     00:06:06.999    23 883 kbps     00:06:01.994    82 094 bytes    292 237 bytes   00:06:07.500
6               0:08:54.233     0:02:56.242     18 931 kbps     28 686 kbps     00:11:16.542    23 800 kbps     00:11:15.107    21 887 kbps     00:09:03.142    78 957 bytes    273 191 bytes   00:10:55.855
7               0:11:50.476     0:02:27.113     20 525 kbps     32 591 kbps     00:12:17.970    25 750 kbps     00:12:17.169    23 702 kbps     00:12:12.064    85 607 bytes    266 835 bytes   00:12:21.974
8               0:14:17.590     0:03:25.672     18 793 kbps     31 221 kbps     00:17:38.357    25 213 kbps     00:17:25.043    22 218 kbps     00:17:25.044    78 381 bytes    297 625 bytes   00:16:29.988
9               0:17:43.262     0:02:08.528     19 934 kbps     30 635 kbps     00:18:04.049    24 785 kbps     00:19:19.057    23 564 kbps     00:19:18.590    83 142 bytes    275 717 bytes   00:18:57.202
10              0:19:51.790     0:09:00.506     18 689 kbps     33 273 kbps     00:28:24.736    28 595 kbps     00:24:04.109    25 452 kbps     00:24:03.108    77 950 bytes    287 183 bytes   00:22:49.368
11              0:28:52.297     0:02:55.975     17 229 kbps     28 055 kbps     00:30:32.263    25 198 kbps     00:30:29.360    22 272 kbps     00:31:19.010    71 861 bytes    267 903 bytes   00:31:46.671
12              0:31:48.273     0:04:52.325     18 635 kbps     30 438 kbps     00:36:20.978    25 411 kbps     00:34:24.829    23 230 kbps     00:34:47.251    77 722 bytes    283 136 bytes   00:36:25.216
13              0:36:40.598     0:06:40.500     20 417 kbps     33 577 kbps     00:39:11.949    29 221 kbps     00:38:42.186    26 033 kbps     00:38:40.818    85 155 bytes    308 325 bytes   00:38:44.021
14              0:43:21.098     0:07:19.906     18 001 kbps     32 552 kbps     00:44:48.152    29 993 kbps     00:44:46.550    27 142 kbps     00:44:44.081    75 080 bytes    331 454 bytes   00:44:49.153
15              0:50:41.004     0:08:43.189     18 539 kbps     30 686 kbps     00:56:32.889    26 310 kbps     00:55:11.374    24 937 kbps     00:56:27.350    77 323 bytes    276 845 bytes   00:57:18.067
16              0:59:24.193     0:02:49.869     19 056 kbps     28 618 kbps     01:00:33.463    23 487 kbps     01:00:51.214    22 444 kbps     01:00:50.513    79 479 bytes    275 748 bytes   01:02:01.017
17              1:02:14.063     0:03:18.731     20 432 kbps     30 722 kbps     01:04:12.915    24 591 kbps     01:04:13.282    23 965 kbps     01:05:01.530    85 217 bytes    257 347 bytes   01:05:32.795
18              1:05:32.795     0:04:00.273     17 846 kbps     30 764 kbps     01:07:21.670    24 222 kbps     01:07:17.666    21 752 kbps     01:09:18.721    74 432 bytes    270 304 bytes   01:08:31.807
19              1:09:33.068     0:02:13.766     19 846 kbps     31 404 kbps     01:10:57.653    24 721 kbps     01:11:31.754    23 201 kbps     01:10:22.251    82 773 bytes    270 810 bytes   01:10:57.720
20              1:11:46.835     0:07:46.365     19 134 kbps     29 737 kbps     01:16:02.291    27 174 kbps     01:13:22.765    25 955 kbps     01:13:21.830    79 805 bytes    293 497 bytes   01:15:57.953
21              1:19:33.201     0:10:42.141     19 270 kbps     31 484 kbps     01:21:58.213    28 203 kbps     01:21:56.378    25 873 kbps     01:26:54.909    80 377 bytes    297 213 bytes   01:27:02.050

STREAM DIAGNOSTICS:

File            PID             Type            Codec           Language                Seconds                 Bitrate                 Bytes           Packets
----            ---             ----            -----           --------                --------------          --------------          -------------   -----
00001.M2TS      4113 (0x1011)   0x1B            AVC                                     5415,277                19 030                  12 881 715 836  70 104 414
00001.M2TS      4352 (0x1100)   0x80            LPCM            eng (English)           5415,277                2 309                   1 562 747 340   8 657 880
00001.M2TS      4353 (0x1101)   0x81            AC3             eng (English)           5415,277                444                     300 552 448     1 677 190
00001.M2TS      4354 (0x1102)   0x86            DTS-HD MA       eng (English)           5415,277                5 294                   3 583 833 592   20 321 730[/code]
<---- END FORUMS PASTE ---->

QUICK SUMMARY:

Disc Title:
Disc Size: 22 581 098 636 bytes
Protection: AACS
BD-Java: No
Playlist: 00000.MPLS
Size: 19 380 989 952 bytes
Length: 1:30:15
Total Bitrate: 28,63 Mbps
Video: MPEG-4 AVC Video / 19030 kbps / 1080i / 29,970 fps / 16:9 / High Profile 4.1
Audio: English / DTS-HD Master Audio / 5.1 / 48 kHz / 5294 kbps / 24-bit (DTS Core: 5.1 / 48 kHz / 1509 kbps / 24-bit)
Audio: English / Dolby Digital Audio / 5.1 / 48 kHz / 448 kbps / DN -4dB
Audio: English / LPCM Audio / 2.0 / 48 kHz / 2304 kbps / 24-bit

********************
PLAYLIST: 00001.MPLS
********************

<--- BEGIN FORUMS PASTE --->
[code]Total   Video
Title                                                           Codec   Length  Movie Size      Disc Size       Bitrate Bitrate Main Audio Track                          Secondary Audio Track
-----                                                           ------  ------- --------------  --------------  ------- ------- ------------------                        ---------------------
00001.MPLS                                                      MPEG-2  0:23:24 2 979 004 416   22 581 098 636  16,97   8,07    DTS-HD Master 5.1 5070Kbps (48kHz/24-bit) DD AC3 5.1 448Kbps[/code]
[code]DISC INFO:

Disc Title:
Disc Size:      22 581 098 636 bytes
Protection:     AACS
BD-Java:        No
BDInfo:         0.5.3

PLAYLIST REPORT:

Name:                   00001.MPLS
Length:                 0:23:24 (h:m:s)
Size:                   2 979 004 416 bytes
Total Bitrate:          16,97 Mbps

VIDEO:

Codec                   Bitrate             Description
-----                   -------             -----------
MPEG-2 Video            8069 kbps           480i / 29,970 fps / 4:3

AUDIO:

Codec                           Language        Bitrate         Description
-----                           --------        -------         -----------
DTS-HD Master Audio             English         5070 kbps       5.1 / 48 kHz / 5070 kbps / 24-bit (DTS Core: 5.1 / 48 kHz / 1509 kbps / 24-bit)
Dolby Digital Audio             English         448 kbps        5.1 / 48 kHz / 448 kbps
LPCM Audio                      English         2304 kbps       2.0 / 48 kHz / 2304 kbps / 24-bit

FILES:

Name            Time In         Length          Size            Total Bitrate
----            -------         ------          ----            -------------
00000.M2TS      0:00:00.000     0:15:23.022     1 942 923 264   16 840
00010.M2TS      0:15:23.022     0:08:01.714     1 036 081 152   17 207

CHAPTERS:

Number          Time In         Length          Avg Video Rate  Max 1-Sec Rate  Max 1-Sec Time  Max 5-Sec Rate  Max 5-Sec Time  Max 10Sec Rate  Max 10Sec Time  Avg Frame Size  Max Frame Size  Max Frame Time
------          -------         ------          --------------  --------------  --------------  --------------  --------------  --------------  --------------  --------------  --------------  --------------
1               0:00:00.000     0:01:49.375     8 002 kbps      9 256 kbps      00:00:50.784    8 219 kbps      00:01:23.216    8 107 kbps      00:01:18.211    33 363 bytes    100 316 bytes   00:01:40.200
2               0:01:49.375     0:03:28.107     8 000 kbps      8 771 kbps      00:03:07.020    8 191 kbps      00:05:04.937    8 074 kbps      00:04:59.932    33 367 bytes    101 444 bytes   00:05:09.909
3               0:05:17.483     0:02:32.051     8 000 kbps      9 095 kbps      00:07:27.980    8 242 kbps      00:07:24.410    8 113 kbps      00:07:19.405    33 367 bytes    124 500 bytes   00:05:33.032
4               0:07:49.535     0:03:08.655     8 000 kbps      9 114 kbps      00:10:37.436    8 248 kbps      00:10:33.466    8 115 kbps      00:09:24.730    33 367 bytes    134 840 bytes   00:08:40.419
5               0:10:58.190     0:04:24.831     8 000 kbps      9 155 kbps      00:15:08.207    8 201 kbps      00:15:06.205    8 118 kbps      00:14:59.231    33 367 bytes    105 480 bytes   00:15:14.613
6               0:15:23.022     0:03:27.774     8 200 kbps      8 852 kbps      00:17:57.342    8 345 kbps      00:18:11.323    8 267 kbps      00:17:48.333    34 201 bytes    99 448 bytes    00:15:51.050
7               0:18:50.796     0:04:33.940     8 199 kbps      9 193 kbps      00:23:08.186    8 497 kbps      00:23:04.282    8 351 kbps      00:22:59.277    34 202 bytes    120 708 bytes   00:23:08.286

STREAM DIAGNOSTICS:

File            PID             Type            Codec           Language                Seconds                 Bitrate                 Bytes           Packets
----            ---             ----            -----           --------                --------------          --------------          -------------   -----
00000.M2TS      4113 (0x1011)   0x02            MPEG-2                                  922,922                 8 001                   923 022 108     5 032 631
00000.M2TS      4352 (0x1100)   0x80            LPCM            eng (English)           922,922                 2 311                   266 569 620     1 476 840
00000.M2TS      4353 (0x1101)   0x81            AC3             eng (English)           922,922                 448                     51 690 240      288 450
00000.M2TS      4354 (0x1102)   0x86            DTS-HD MA       eng (English)           922,922                 5 019                   579 005 344     3 290 520
00010.M2TS      4113 (0x1011)   0x02            MPEG-2                                  481,581                 8 202                   493 757 440     2 691 811
00010.M2TS      4352 (0x1100)   0x80            LPCM            eng (English)           481,581                 2 311                   139 090 412     770 584
00010.M2TS      4353 (0x1101)   0x81            AC3             eng (English)           481,581                 448                     26 971 392      150 510
00010.M2TS      4354 (0x1102)   0x86            DTS-HD MA       eng (English)           481,581                 5 172                   311 322 768     1 767 172[/code]
<---- END FORUMS PASTE ---->

QUICK SUMMARY:

Disc Title:
Disc Size: 22 581 098 636 bytes
Protection: AACS
BD-Java: No
Playlist: 00001.MPLS
Size: 2 979 004 416 bytes
Length: 0:23:24
Total Bitrate: 16,97 Mbps
Video: MPEG-2 Video / 8069 kbps / 480i / 29,970 fps / 4:3
Audio: English / DTS-HD Master Audio / 5.1 / 48 kHz / 5070 kbps / 24-bit (DTS Core: 5.1 / 48 kHz / 1509 kbps / 24-bit)
Audio: English / Dolby Digital Audio / 5.1 / 48 kHz / 448 kbps
Audio: English / LPCM Audio / 2.0 / 48 kHz / 2304 kbps / 24-bit

********************
PLAYLIST: 00002.MPLS
********************

<--- BEGIN FORUMS PASTE --->
[code]Total   Video
Title                                                           Codec   Length  Movie Size      Disc Size       Bitrate Bitrate Main Audio Track                          Secondary Audio Track
-----                                                           ------  ------- --------------  --------------  ------- ------- ------------------                        ---------------------
00002.MPLS                                                      AVC     0:01:16 203 649 024     22 581 098 636  21,27   18,92   DD AC3 5.1 448Kbps                        DD AC3 5.1 448Kbps[/code]
[code]DISC INFO:

Disc Title:
Disc Size:      22 581 098 636 bytes
Protection:     AACS
BD-Java:        No
BDInfo:         0.5.3

PLAYLIST REPORT:

Name:                   00002.MPLS
Length:                 0:01:16 (h:m:s)
Size:                   203 649 024 bytes
Total Bitrate:          21,27 Mbps

VIDEO:

Codec                   Bitrate             Description
-----                   -------             -----------
MPEG-4 AVC Video        18924 kbps          1080i / 29,970 fps / 16:9 / High Profile 4.1

AUDIO:

Codec                           Language        Bitrate         Description
-----                           --------        -------         -----------
Dolby Digital Audio             English         448 kbps        5.1 / 48 kHz / 448 kbps
Dolby Digital Audio             English         448 kbps        5.1 / 48 kHz / 448 kbps
Dolby Digital Audio             English         448 kbps        5.1 / 48 kHz / 448 kbps

FILES:

Name            Time In         Length          Size            Total Bitrate
----            -------         ------          ----            -------------
00006.M2TS      0:00:00.000     0:01:16.609     203 649 024     21 266

CHAPTERS:

Number          Time In         Length          Avg Video Rate  Max 1-Sec Rate  Max 1-Sec Time  Max 5-Sec Rate  Max 5-Sec Time  Max 10Sec Rate  Max 10Sec Time  Avg Frame Size  Max Frame Size  Max Frame Time
------          -------         ------          --------------  --------------  --------------  --------------  --------------  --------------  --------------  --------------  --------------  --------------
1               0:00:00.000     0:01:16.609     18 924 kbps     27 021 kbps     00:00:22.822    22 615 kbps     00:00:18.818    21 693 kbps     00:00:15.582    78 928 bytes    251 976 bytes   00:00:03.603

STREAM DIAGNOSTICS:

File            PID             Type            Codec           Language                Seconds                 Bitrate                 Bytes           Packets
----            ---             ----            -----           --------                --------------          --------------          -------------   -----
00006.M2TS      4113 (0x1011)   0x1B            AVC                                     76,476                  18 957                  181 218 372     986 228
00006.M2TS      4352 (0x1100)   0x81            AC3             eng (English)           76,476                  449                     4 291 840       23 950
00006.M2TS      4353 (0x1101)   0x81            AC3             eng (English)           76,476                  449                     4 291 840       23 950
00006.M2TS      4354 (0x1102)   0x81            AC3             eng (English)           76,476                  449                     4 291 840       23 950[/code]
<---- END FORUMS PASTE ---->

QUICK SUMMARY:

Disc Title:
Disc Size: 22 581 098 636 bytes
Protection: AACS
BD-Java: No
Playlist: 00002.MPLS
Size: 203 649 024 bytes
Length: 0:01:16
Total Bitrate: 21,27 Mbps
Video: MPEG-4 AVC Video / 18924 kbps / 1080i / 29,970 fps / 16:9 / High Profile 4.1
Audio: English / Dolby Digital Audio / 5.1 / 48 kHz / 448 kbps
Audio: English / Dolby Digital Audio / 5.1 / 48 kHz / 448 kbps
Audio: English / Dolby Digital Audio / 5.1 / 48 kHz / 448 kbps


Трекер:  [ 28-Июл-2011 22:01 ]

  

Скачать .torrent

Размер .torrent файла 108 KB


Размер: 21.03 GB
Хэш (hash) релиза: ce30689c142cbf2488ee6e23313e99be8759fc60

Еще никто не оставлял запись к записи скачать торрент Earth, Wind & Fire: Live At Montreux . Будь первым!

!Обратная связь